  0
SECTION
  2
HEADER
  9
$ACADVER
  1
AC1015
  9
$ACADMAINTVER
 70
    13
  9
$DWGCODEPAGE
  3
ANSI_1250
  9
$INSBASE
 10
0.0
 20
0.0
 30
0.0
  9
$EXTMIN
 10
427.2231448893617
 20
124.9664921267376
 30
0.0
  9
$EXTMAX
 10
2125.082717533329
 20
1321.016881975797
 30
0.0
  9
$LIMMIN
 10
0.0
 20
0.0
  9
$LIMMAX
 10
420.0
 20
297.0
  9
$ORTHOMODE
 70
     0
  9
$REGENMODE
 70
     1
  9
$FILLMODE
 70
     1
  9
$QTEXTMODE
 70
     0
  9
$MIRRTEXT
 70
     1
  9
$LTSCALE
 40
1.0
  9
$ATTMODE
 70
     1
  9
$TEXTSIZE
 40
30.0
  9
$TRACEWID
 40
1.0
  9
$TEXTSTYLE
  7
Standard
  9
$CLAYER
  8
popis
  9
$CELTYPE
  6
ByLayer
  9
$CECOLOR
 62
   256
  9
$CELTSCALE
 40
1.0
  9
$DISPSILH
 70
     0
  9
$DIMSCALE
 40
10.0
  9
$DIMASZ
 40
2.0
  9
$DIMEXO
 40
0.625
  9
$DIMDLI
 40
3.75
  9
$DIMRND
 40
0.0
  9
$DIMDLE
 40
0.0
  9
$DIMEXE
 40
1.25
  9
$DIMTP
 40
0.0
  9
$DIMTM
 40
0.0
  9
$DIMTXT
 40
2.0
  9
$DIMCEN
 40
2.5
  9
$DIMTSZ
 40
0.0
  9
$DIMTOL
 70
     0
  9
$DIMLIM
 70
     0
  9
$DIMTIH
 70
     0
  9
$DIMTOH
 70
     0
  9
$DIMSE1
 70
     0
  9
$DIMSE2
 70
     0
  9
$DIMTAD
 70
     1
  9
$DIMZIN
 70
     8
  9
$DIMBLK
  1

  9
$DIMASO
 70
     1
  9
$DIMSHO
 70
     1
  9
$DIMPOST
  1

  9
$DIMAPOST
  1

  9
$DIMALT
 70
     0
  9
$DIMALTD
 70
     3
  9
$DIMALTF
 40
0.03937007874016
  9
$DIMLFAC
 40
1.0
  9
$DIMTOFL
 70
     1
  9
$DIMTVP
 40
0.0
  9
$DIMTIX
 70
     0
  9
$DIMSOXD
 70
     0
  9
$DIMSAH
 70
     0
  9
$DIMBLK1
  1

  9
$DIMBLK2
  1

  9
$DIMSTYLE
  2
ISO-25
  9
$DIMCLRD
 70
     0
  9
$DIMCLRE
 70
     0
  9
$DIMCLRT
 70
     0
  9
$DIMTFAC
 40
1.0
  9
$DIMGAP
 40
0.625
  9
$DIMJUST
 70
     0
  9
$DIMSD1
 70
     0
  9
$DIMSD2
 70
     0
  9
$DIMTOLJ
 70
     0
  9
$DIMTZIN
 70
     8
  9
$DIMALTZ
 70
     0
  9
$DIMALTTZ
 70
     0
  9
$DIMUPT
 70
     0
  9
$DIMDEC
 70
     2
  9
$DIMTDEC
 70
     2
  9
$DIMALTU
 70
     2
  9
$DIMALTTD
 70
     3
  9
$DIMTXSTY
  7
Standard
  9
$DIMAUNIT
 70
     0
  9
$DIMADEC
 70
     0
  9
$DIMALTRND
 40
0.0
  9
$DIMAZIN
 70
     0
  9
$DIMDSEP
 70
    44
  9
$DIMATFIT
 70
     3
  9
$DIMFRAC
 70
     0
  9
$DIMLDRBLK
  1

  9
$DIMLUNIT
 70
     2
  9
$DIMLWD
 70
    -2
  9
$DIMLWE
 70
    -2
  9
$DIMTMOVE
 70
     0
  9
$LUNITS
 70
     2
  9
$LUPREC
 70
     4
  9
$SKETCHINC
 40
1.0
  9
$FILLETRAD
 40
2.5
  9
$AUNITS
 70
     0
  9
$AUPREC
 70
     0
  9
$MENU
  1
.
  9
$ELEVATION
 40
0.0
  9
$PELEVATION
 40
0.0
  9
$THICKNESS
 40
0.0
  9
$LIMCHECK
 70
     0
  9
$CHAMFERA
 40
10.0
  9
$CHAMFERB
 40
10.0
  9
$CHAMFERC
 40
20.0
  9
$CHAMFERD
 40
0.0
  9
$SKPOLY
 70
     0
  9
$TDCREATE
 40
2453639.692351574
  9
$TDUCREATE
 40
2453639.650684907
  9
$TDUPDATE
 40
2453681.815642581
  9
$TDUUPDATE
 40
2453681.773975914
  9
$TDINDWG
 40
0.1081585995
  9
$TDUSRTIMER
 40
0.1081580208
  9
$USRTIMER
 70
     1
  9
$ANGBASE
 50
0.0
  9
$ANGDIR
 70
     0
  9
$PDMODE
 70
     0
  9
$PDSIZE
 40
0.0
  9
$PLINEWID
 40
0.0
  9
$SPLFRAME
 70
     0
  9
$SPLINETYPE
 70
     6
  9
$SPLINESEGS
 70
     8
  9
$HANDSEED
  5
297
  9
$SURFTAB1
 70
     6
  9
$SURFTAB2
 70
     6
  9
$SURFTYPE
 70
     6
  9
$SURFU
 70
     6
  9
$SURFV
 70
     6
  9
$UCSBASE
  2

  9
$UCSNAME
  2

  9
$UCSORG
 10
0.0
 20
0.0
 30
0.0
  9
$UCSXDIR
 10
1.0
 20
0.0
 30
0.0
  9
$UCSYDIR
 10
0.0
 20
1.0
 30
0.0
  9
$UCSORTHOREF
  2

  9
$UCSORTHOVIEW
 70
     1
  9
$UCSORGTOP
 10
0.0
 20
0.0
 30
0.0
  9
$UCSORGBOTTOM
 10
0.0
 20
0.0
 30
0.0
  9
$UCSORGLEFT
 10
0.0
 20
0.0
 30
0.0
  9
$UCSORGRIGHT
 10
0.0
 20
0.0
 30
0.0
  9
$UCSORGFRONT
 10
0.0
 20
0.0
 30
0.0
  9
$UCSORGBACK
 10
0.0
 20
0.0
 30
0.0
  9
$PUCSBASE
  2

  9
$PUCSNAME
  2

  9
$PUCSORG
 10
0.0
 20
0.0
 30
0.0
  9
$PUCSXDIR
 10
1.0
 20
0.0
 30
0.0
  9
$PUCSYDIR
 10
0.0
 20
1.0
 30
0.0
  9
$PUCSORTHOREF
  2

  9
$PUCSORTHOVIEW
 70
     0
  9
$PUCSORGTOP
 10
0.0
 20
0.0
 30
0.0
  9
$PUCSORGBOTTOM
 10
0.0
 20
0.0
 30
0.0
  9
$PUCSORGLEFT
 10
0.0
 20
0.0
 30
0.0
  9
$PUCSORGRIGHT
 10
0.0
 20
0.0
 30
0.0
  9
$PUCSORGFRONT
 10
0.0
 20
0.0
 30
0.0
  9
$PUCSORGBACK
 10
0.0
 20
0.0
 30
0.0
  9
$USERI1
 70
     0
  9
$USERI2
 70
     0
  9
$USERI3
 70
     0
  9
$USERI4
 70
     0
  9
$USERI5
 70
     0
  9
$USERR1
 40
0.0
  9
$USERR2
 40
0.0
  9
$USERR3
 40
0.0
  9
$USERR4
 40
0.0
  9
$USERR5
 40
0.0
  9
$WORLDVIEW
 70
     1
  9
$SHADEDGE
 70
     3
  9
$SHADEDIF
 70
    70
  9
$TILEMODE
 70
     1
  9
$MAXACTVP
 70
    64
  9
$PINSBASE
 10
0.0
 20
0.0
 30
0.0
  9
$PLIMCHECK
 70
     0
  9
$PEXTMIN
 10
1.000000000000000E+20
 20
1.000000000000000E+20
 30
1.000000000000000E+20
  9
$PEXTMAX
 10
-1.000000000000000E+20
 20
-1.000000000000000E+20
 30
-1.000000000000000E+20
  9
$PLIMMIN
 10
0.0
 20
0.0
  9
$PLIMMAX
 10
420.0
 20
297.0
  9
$UNITMODE
 70
     0
  9
$VISRETAIN
 70
     1
  9
$PLINEGEN
 70
     0
  9
$PSLTSCALE
 70
     1
  9
$TREEDEPTH
 70
  3020
  9
$CMLSTYLE
  2
Standard
  9
$CMLJUST
 70
     0
  9
$CMLSCALE
 40
20.0
  9
$PROXYGRAPHICS
 70
     1
  9
$MEASUREMENT
 70
     1
  9
$CELWEIGHT
370
    -1
  9
$ENDCAPS
280
     0
  9
$JOINSTYLE
280
     0
  9
$LWDISPLAY
290
     0
  9
$INSUNITS
 70
     4
  9
$HYPERLINKBASE
  1

  9
$STYLESHEET
  1

  9
$XEDIT
290
     1
  9
$CEPSNTYPE
380
     0
  9
$PSTYLEMODE
290
     1
  9
$FINGERPRINTGUID
  2
{9B47308E-04D6-42FB-BD32-F27AC533D1CD}
  9
$VERSIONGUID
  2
{2B7DE240-5C71-4D97-99B8-D310B222BCD4}
  9
$EXTNAMES
290
     1
  9
$PSVPSCALE
 40
0.0
  9
$OLESTARTUP
290
     0
  0
ENDSEC
  0
SECTION
  2
CLASSES
  0
CLASS
  1
ACDBDICTIONARYWDFLT
  2
AcDbDictionaryWithDefault
  3
AutoCAD 2000
 90
        0
280
     0
281
     0
  0
CLASS
  1
ACDBPLACEHOLDER
  2
AcDbPlaceHolder
  3
AutoCAD 2000
 90
        0
280
     0
281
     0
  0
CLASS
  1
LAYOUT
  2
AcDbLayout
  3
AutoCAD 2000
 90
        0
280
     0
281
     0
  0
CLASS
  1
DICTIONARYVAR
  2
AcDbDictionaryVar
  3
AutoCAD 2000
 90
        0
280
     0
281
     0
  0
CLASS
  1
DIMASSOC
  2
AcDbDimAssoc
  3
"AcDbDimAssoc|Product Desc:     AcDim ARX App For Dimension|Company:          Autodesk, Inc.|WEB Address:      www.autodesk.com"
 90
        0
280
     0
281
     0
  0
ENDSEC
  0
SECTION
  2
TABLES
  0
TABLE
  2
VPORT
  5
8
330
0
100
AcDbSymbolTable
 70
     7
  0
VPORT
  5
296
330
8
100
AcDbSymbolTableRecord
100
AcDbViewportTableRecord
  2
*Active
 70
     0
 10
0.0
 20
0.0
 11
1.0
 21
1.0
 12
1276.152931211345
 22
722.9916870512674
 13
0.0
 23
0.0
 14
10.0
 24
10.0
 15
10.0
 25
10.0
 16
0.0
 26
0.0
 36
1.0
 17
0.0
 27
0.0
 37
0.0
 40
1207.351653375192
 41
1.697160883280757
 42
50.0
 43
0.0
 44
0.0
 50
0.0
 51
0.0
 71
     0
 72
   100
 73
     1
 74
     3
 75
     0
 76
     0
 77
     0
 78
     0
281
     0
 65
     1
110
0.0
120
0.0
130
0.0
111
1.0
121
0.0
131
0.0
112
0.0
122
1.0
132
0.0
 79
     1
146
0.0
  0
ENDTAB
  0
TABLE
  2
LTYPE
  5
5
330
0
100
AcDbSymbolTable
 70
     3
  0
LTYPE
  5
14
330
5
100
AcDbSymbolTableRecord
100
AcDbLinetypeTableRecord
  2
ByBlock
 70
     0
  3

 72
    65
 73
     0
 40
0.0
  0
LTYPE
  5
15
330
5
100
AcDbSymbolTableRecord
100
AcDbLinetypeTableRecord
  2
ByLayer
 70
     0
  3

 72
    65
 73
     0
 40
0.0
  0
LTYPE
  5
16
330
5
100
AcDbSymbolTableRecord
100
AcDbLinetypeTableRecord
  2
Continuous
 70
     0
  3
Solid line
 72
    65
 73
     0
 40
0.0
  0
LTYPE
  5
121
330
5
100
AcDbSymbolTableRecord
100
AcDbLinetypeTableRecord
  2
ACAD_ISO02W100
 70
     0
  3
ISO \U+00E8árkovaná __ __ __ __ __ __ __ __ __ __ __ 
 72
    65
 73
     2
 40
15.0
 49
12.0
 74
     0
 49
-3.0
 74
     0
  0
LTYPE
  5
122
330
5
100
AcDbSymbolTableRecord
100
AcDbLinetypeTableRecord
  2
ACAD_ISO03W100
 70
     0
  3
ISO p\U+00F8erušovaná __    __    __    __    __    _
 72
    65
 73
     2
 40
30.0
 49
12.0
 74
     0
 49
-18.0
 74
     0
  0
ENDTAB
  0
TABLE
  2
LAYER
  5
2
330
0
100
AcDbSymbolTable
 70
     5
  0
LAYER
  5
10
330
2
100
AcDbSymbolTableRecord
100
AcDbLayerTableRecord
  2
0
 70
     0
 62
    90
  6
Continuous
370
    -3
390
F
  0
LAYER
  5
2B
330
2
100
AcDbSymbolTableRecord
100
AcDbLayerTableRecord
  2
koty
 70
     0
 62
    41
  6
Continuous
370
    -3
390
F
  0
LAYER
  5
2C
330
2
100
AcDbSymbolTableRecord
100
AcDbLayerTableRecord
  2
popis
 70
     0
 62
   210
  6
Continuous
370
    -3
390
F
  0
LAYER
  5
4E
330
2
100
AcDbSymbolTableRecord
100
AcDbLayerTableRecord
  2
Defpoints
 70
     0
 62
     7
  6
Continuous
290
     0
370
    -3
390
F
  0
LAYER
  5
C4
330
2
100
AcDbSymbolTableRecord
100
AcDbLayerTableRecord
  2
srafy
 70
     0
 62
    90
  6
Continuous
370
    -3
390
F
  0
ENDTAB
  0
TABLE
  2
STYLE
  5
3
330
0
100
AcDbSymbolTable
 70
     2
  0
STYLE
  5
11
330
3
100
AcDbSymbolTableRecord
100
AcDbTextStyleTableRecord
  2
Standard
 70
     0
 40
0.0
 41
1.0
 50
0.0
 71
     0
 42
30.0
  3
txt
  4

  0
STYLE
  5
120
330
3
100
AcDbSymbolTableRecord
100
AcDbTextStyleTableRecord
  2

 70
     1
 40
0.0
 41
1.0
 50
0.0
 71
     0
 42
2.5
  3
ltypeshp.shx
  4

  0
ENDTAB
  0
TABLE
  2
VIEW
  5
6
330
0
100
AcDbSymbolTable
 70
     0
  0
ENDTAB
  0
TABLE
  2
UCS
  5
7
330
0
100
AcDbSymbolTable
 70
     0
  0
ENDTAB
  0
TABLE
  2
APPID
  5
9
330
0
100
AcDbSymbolTable
 70
     1
  0
APPID
  5
12
330
9
100
AcDbSymbolTableRecord
100
AcDbRegAppTableRecord
  2
ACAD
 70
     0
  0
ENDTAB
  0
TABLE
  2
DIMSTYLE
  5
A
330
0
100
AcDbSymbolTable
 70
     1
100
AcDbDimStyleTable
 71
     1
340
27
  0
DIMSTYLE
105
27
102
{ACAD_REACTORS
330
204
330
21C
330
234
330
24C
330
264
330
27C
102
}
330
A
100
AcDbSymbolTableRecord
100
AcDbDimStyleTableRecord
  2
ISO-25
 70
     0
 40
10.0
 41
2.0
 42
0.625
 43
3.75
 44
1.25
 73
     0
 74
     0
 77
     1
 78
     8
140
2.0
141
2.5
143
0.03937007874016
147
0.625
171
     3
172
     1
271
     2
272
     2
274
     3
278
    44
283
     0
284
     8
340
11
  0
ENDTAB
  0
TABLE
  2
BLOCK_RECORD
  5
1
330
0
100
AcDbSymbolTable
 70
     7
  0
BLOCK_RECORD
  5
1F
330
1
100
AcDbSymbolTableRecord
100
AcDbBlockTableRecord
  2
*Model_Space
340
22
  0
BLOCK_RECORD
  5
1B
330
1
100
AcDbSymbolTableRecord
100
AcDbBlockTableRecord
  2
*Paper_Space
340
1E
  0
BLOCK_RECORD
  5
23
330
1
100
AcDbSymbolTableRecord
100
AcDbBlockTableRecord
  2
*Paper_Space0
340
26
  0
BLOCK_RECORD
  5
205
330
1
100
AcDbSymbolTableRecord
100
AcDbBlockTableRecord
  2
*D1
340
0
  0
BLOCK_RECORD
  5
21D
330
1
100
AcDbSymbolTableRecord
100
AcDbBlockTableRecord
  2
*D2
340
0
  0
BLOCK_RECORD
  5
235
330
1
100
AcDbSymbolTableRecord
100
AcDbBlockTableRecord
  2
*D3
340
0
  0
BLOCK_RECORD
  5
24D
330
1
100
AcDbSymbolTableRecord
100
AcDbBlockTableRecord
  2
*D4
340
0
  0
BLOCK_RECORD
  5
265
330
1
100
AcDbSymbolTableRecord
100
AcDbBlockTableRecord
  2
*D5
340
0
  0
BLOCK_RECORD
  5
27D
330
1
100
AcDbSymbolTableRecord
100
AcDbBlockTableRecord
  2
*D6
340
0
  0
ENDTAB
  0
ENDSEC
  0
SECTION
  2
BLOCKS
  0
BLOCK
  5
20
330
1F
100
AcDbEntity
  8
0
100
AcDbBlockBegin
  2
*Model_Space
 70
     0
 10
0.0
 20
0.0
 30
0.0
  3
*Model_Space
  1

  0
ENDBLK
  5
21
330
1F
100
AcDbEntity
  8
0
100
AcDbBlockEnd
  0
BLOCK
  5
1C
330
1B
100
AcDbEntity
 67
     1
  8
0
100
AcDbBlockBegin
  2
*Paper_Space
 70
     0
 10
0.0
 20
0.0
 30
0.0
  3
*Paper_Space
  1

  0
ENDBLK
  5
1D
330
1B
100
AcDbEntity
 67
     1
  8
0
100
AcDbBlockEnd
  0
BLOCK
  5
24
330
23
100
AcDbEntity
  8
0
100
AcDbBlockBegin
  2
*Paper_Space0
 70
     0
 10
0.0
 20
0.0
 30
0.0
  3
*Paper_Space0
  1

  0
ENDBLK
  5
25
330
23
100
AcDbEntity
  8
0
100
AcDbBlockEnd
  0
BLOCK
  5
20F
330
205
100
AcDbEntity
  8
0
100
AcDbBlockBegin
  2
*D1
 70
     1
 10
0.0
 20
0.0
 30
0.0
  3
*D1
  1

  0
LINE
  5
212
330
205
100
AcDbEntity
  8
koty
 62
     0
370
    -2
100
AcDbLine
 10
535.6224866995416
 20
244.4083304669038
 30
0.0
 11
535.6224866995416
 21
124.9664921267376
 31
0.0
  0
LINE
  5
213
330
205
100
AcDbEntity
  8
koty
 62
     0
370
    -2
100
AcDbLine
 10
1135.622486699541
 20
244.4083304669038
 30
0.0
 11
1135.622486699541
 21
124.9664921267376
 31
0.0
  0
LINE
  5
214
330
205
100
AcDbEntity
  8
koty
 62
     0
370
    -2
100
AcDbLine
 10
555.6224866995417
 20
137.4664921267376
 30
0.0
 11
1115.622486699541
 21
137.4664921267376
 31
0.0
  0
SOLID
  5
215
330
205
100
AcDbEntity
  8
koty
 62
     0
100
AcDbTrace
 10
555.6224866995417
 20
140.7998254600709
 30
0.0
 11
555.6224866995417
 21
134.1331587934043
 31
0.0
 12
535.6224866995416
 22
137.4664921267376
 32
0.0
 13
535.6224866995416
 23
137.4664921267376
 33
0.0
  0
SOLID
  5
216
330
205
100
AcDbEntity
  8
koty
 62
     0
100
AcDbTrace
 10
1115.622486699541
 20
140.7998254600709
 30
0.0
 11
1115.622486699541
 21
134.1331587934043
 31
0.0
 12
1135.622486699541
 22
137.4664921267376
 32
0.0
 13
1135.622486699541
 23
137.4664921267376
 33
0.0
  0
MTEXT
  5
217
330
205
100
AcDbEntity
  8
koty
 62
     0
100
AcDbMText
 10
835.6224866995415
 20
153.7164921267376
 30
0.0
 40
20.0
 41
0.0
 71
     5
 72
     1
  1
600
 73
     1
 44
1.0
  0
POINT
  5
218
330
205
100
AcDbEntity
  8
Defpoints
 62
     0
100
AcDbPoint
 10
535.6224866995416
 20
250.6583304669038
 30
0.0
  0
POINT
  5
219
330
205
100
AcDbEntity
  8
Defpoints
 62
     0
100
AcDbPoint
 10
1135.622486699541
 20
250.6583304669038
 30
0.0
  0
POINT
  5
21A
330
205
100
AcDbEntity
  8
Defpoints
 62
     0
100
AcDbPoint
 10
1135.622486699541
 20
137.4664921267376
 30
0.0
  0
ENDBLK
  5
210
330
205
100
AcDbEntity
  8
0
100
AcDbBlockEnd
  0
BLOCK
  5
227
330
21D
100
AcDbEntity
  8
0
100
AcDbBlockBegin
  2
*D2
 70
     1
 10
0.0
 20
0.0
 30
0.0
  3
*D2
  1

  0
LINE
  5
22A
330
21D
100
AcDbEntity
  8
koty
 62
     0
370
    -2
100
AcDbLine
 10
635.6224866995416
 20
803.9083304669038
 30
0.0
 11
635.6224866995416
 21
1187.287454158625
 31
0.0
  0
LINE
  5
22B
330
21D
100
AcDbEntity
  8
koty
 62
     0
370
    -2
100
AcDbLine
 10
1035.622486699541
 20
803.9083304669038
 30
0.0
 11
1035.622486699541
 21
1187.287454158625
 31
0.0
  0
LINE
  5
22C
330
21D
100
AcDbEntity
  8
koty
 62
     0
370
    -2
100
AcDbLine
 10
655.6224866995417
 20
1174.787454158625
 30
0.0
 11
1015.622486699541
 21
1174.787454158625
 31
0.0
  0
SOLID
  5
22D
330
21D
100
AcDbEntity
  8
koty
 62
     0
100
AcDbTrace
 10
655.6224866995417
 20
1178.120787491958
 30
0.0
 11
655.6224866995417
 21
1171.454120825291
 31
0.0
 12
635.6224866995416
 22
1174.787454158625
 32
0.0
 13
635.6224866995416
 23
1174.787454158625
 33
0.0
  0
SOLID
  5
22E
330
21D
100
AcDbEntity
  8
koty
 62
     0
100
AcDbTrace
 10
1015.622486699541
 20
1178.120787491958
 30
0.0
 11
1015.622486699541
 21
1171.454120825291
 31
0.0
 12
1035.622486699541
 22
1174.787454158625
 32
0.0
 13
1035.622486699541
 23
1174.787454158625
 33
0.0
  0
MTEXT
  5
22F
330
21D
100
AcDbEntity
  8
koty
 62
     0
100
AcDbMText
 10
835.6224866995415
 20
1191.037454158625
 30
0.0
 40
20.0
 41
0.0
 71
     5
 72
     1
  1
400
 73
     1
 44
1.0
  0
POINT
  5
230
330
21D
100
AcDbEntity
  8
Defpoints
 62
     0
100
AcDbPoint
 10
635.6224866995416
 20
797.6583304669039
 30
0.0
  0
POINT
  5
231
330
21D
100
AcDbEntity
  8
Defpoints
 62
     0
100
AcDbPoint
 10
1035.622486699541
 20
797.6583304669039
 30
0.0
  0
POINT
  5
232
330
21D
100
AcDbEntity
  8
Defpoints
 62
     0
100
AcDbPoint
 10
1035.622486699541
 20
1174.787454158625
 30
0.0
  0
ENDBLK
  5
228
330
21D
100
AcDbEntity
  8
0
100
AcDbBlockEnd
  0
BLOCK
  5
23F
330
235
100
AcDbEntity
  8
0
100
AcDbBlockBegin
  2
*D3
 70
     1
 10
0.0
 20
0.0
 30
0.0
  3
*D3
  1

  0
LINE
  5
242
330
235
100
AcDbEntity
  8
koty
 62
     0
370
    -2
100
AcDbLine
 10
529.3724866995416
 20
797.6583304669039
 30
0.0
 11
440.9731448893618
 21
797.6583304669039
 31
0.0
  0
LINE
  5
243
330
235
100
AcDbEntity
  8
koty
 62
     0
370
    -2
100
AcDbLine
 10
539.3724866995417
 20
240.6583304669038
 30
0.0
 11
440.9731448893617
 21
240.6583304669038
 31
0.0
  0
LINE
  5
244
330
235
100
AcDbEntity
  8
koty
 62
     0
370
    -2
100
AcDbLine
 10
453.4731448893618
 20
777.6583304669038
 30
0.0
 11
453.4731448893617
 21
260.6583304669038
 31
0.0
  0
SOLID
  5
245
330
235
100
AcDbEntity
  8
koty
 62
     0
100
AcDbTrace
 10
450.1398115560284
 20
777.6583304669038
 30
0.0
 11
456.8064782226951
 21
777.6583304669038
 31
0.0
 12
453.4731448893618
 22
797.6583304669039
 32
0.0
 13
453.4731448893618
 23
797.6583304669039
 33
0.0
  0
SOLID
  5
246
330
235
100
AcDbEntity
  8
koty
 62
     0
100
AcDbTrace
 10
450.1398115560284
 20
260.6583304669038
 30
0.0
 11
456.806478222695
 21
260.6583304669038
 31
0.0
 12
453.4731448893617
 22
240.6583304669038
 32
0.0
 13
453.4731448893617
 23
240.6583304669038
 33
0.0
  0
MTEXT
  5
247
330
235
100
AcDbEntity
  8
koty
 62
     0
100
AcDbMText
 10
437.2231448893617
 20
519.1583304669039
 30
0.0
 40
20.0
 41
0.0
 71
     5
 72
     1
  1
557
 11
0.0000000000000001
 21
1.0
 31
0.0
 73
     1
 44
1.0
  0
POINT
  5
248
330
235
100
AcDbEntity
  8
Defpoints
 62
     0
100
AcDbPoint
 10
535.6224866995416
 20
797.6583304669039
 30
0.0
  0
POINT
  5
249
330
235
100
AcDbEntity
  8
Defpoints
 62
     0
100
AcDbPoint
 10
545.6224866995417
 20
240.6583304669038
 30
0.0
  0
POINT
  5
24A
330
235
100
AcDbEntity
  8
Defpoints
 62
     0
100
AcDbPoint
 10
453.4731448893617
 20
240.6583304669038
 30
0.0
  0
ENDBLK
  5
240
330
235
100
AcDbEntity
  8
0
100
AcDbBlockEnd
  0
BLOCK
  5
257
330
24D
100
AcDbEntity
  8
0
100
AcDbBlockBegin
  2
*D4
 70
     1
 10
0.0
 20
0.0
 30
0.0
  3
*D4
  1

  0
LINE
  5
25A
330
24D
100
AcDbEntity
  8
koty
 62
     0
370
    -2
100
AcDbLine
 10
1447.906819961732
 20
234.4083304669036
 30
0.0
 11
1447.906819961732
 21
124.9664921267376
 31
0.0
  0
LINE
  5
25B
330
24D
100
AcDbEntity
  8
koty
 62
     0
370
    -2
100
AcDbLine
 10
2007.906819961732
 20
234.4083304669037
 30
0.0
 11
2007.906819961732
 21
124.9664921267376
 31
0.0
  0
LINE
  5
25C
330
24D
100
AcDbEntity
  8
koty
 62
     0
370
    -2
100
AcDbLine
 10
1467.906819961732
 20
137.4664921267376
 30
0.0
 11
1987.906819961732
 21
137.4664921267376
 31
0.0
  0
SOLID
  5
25D
330
24D
100
AcDbEntity
  8
koty
 62
     0
100
AcDbTrace
 10
1467.906819961732
 20
140.7998254600709
 30
0.0
 11
1467.906819961732
 21
134.1331587934043
 31
0.0
 12
1447.906819961732
 22
137.4664921267376
 32
0.0
 13
1447.906819961732
 23
137.4664921267376
 33
0.0
  0
SOLID
  5
25E
330
24D
100
AcDbEntity
  8
koty
 62
     0
100
AcDbTrace
 10
1987.906819961732
 20
140.7998254600709
 30
0.0
 11
1987.906819961732
 21
134.1331587934043
 31
0.0
 12
2007.906819961732
 22
137.4664921267376
 32
0.0
 13
2007.906819961732
 23
137.4664921267376
 33
0.0
  0
MTEXT
  5
25F
330
24D
100
AcDbEntity
  8
koty
 62
     0
100
AcDbMText
 10
1727.906819961732
 20
153.7164921267376
 30
0.0
 40
20.0
 41
0.0
 71
     5
 72
     1
  1
560
 73
     1
 44
1.0
  0
POINT
  5
260
330
24D
100
AcDbEntity
  8
Defpoints
 62
     0
100
AcDbPoint
 10
1447.906819961732
 20
240.6583304669036
 30
0.0
  0
POINT
  5
261
330
24D
100
AcDbEntity
  8
Defpoints
 62
     0
100
AcDbPoint
 10
2007.906819961732
 20
240.6583304669037
 30
0.0
  0
POINT
  5
262
330
24D
100
AcDbEntity
  8
Defpoints
 62
     0
100
AcDbPoint
 10
2007.906819961732
 20
137.4664921267376
 30
0.0
  0
ENDBLK
  5
258
330
24D
100
AcDbEntity
  8
0
100
AcDbBlockEnd
  0
BLOCK
  5
26F
330
265
100
AcDbEntity
  8
0
100
AcDbBlockBegin
  2
*D5
 70
     1
 10
0.0
 20
0.0
 30
0.0
  3
*D5
  1

  0
LINE
  5
272
330
265
100
AcDbEntity
  8
koty
 62
     0
370
    -2
100
AcDbLine
 10
2014.156819961732
 20
240.6583304669037
 30
0.0
 11
2125.082717533329
 21
240.6583304669037
 31
0.0
  0
LINE
  5
273
330
265
100
AcDbEntity
  8
koty
 62
     0
370
    -2
100
AcDbLine
 10
1712.732058883239
 20
1081.658330466903
 30
0.0
 11
2125.082717533329
 21
1081.658330466903
 31
0.0
  0
LINE
  5
274
330
265
100
AcDbEntity
  8
koty
 62
     0
370
    -2
100
AcDbLine
 10
2112.582717533328
 20
260.6583304669038
 30
0.0
 11
2112.582717533329
 21
1061.658330466903
 31
0.0
  0
SOLID
  5
275
330
265
100
AcDbEntity
  8
koty
 62
     0
100
AcDbTrace
 10
2109.249384199995
 20
260.6583304669038
 30
0.0
 11
2115.916050866662
 21
260.6583304669038
 31
0.0
 12
2112.582717533328
 22
240.6583304669037
 32
0.0
 13
2112.582717533328
 23
240.6583304669037
 33
0.0
  0
SOLID
  5
276
330
265
100
AcDbEntity
  8
koty
 62
     0
100
AcDbTrace
 10
2109.249384199995
 20
1061.658330466903
 30
0.0
 11
2115.916050866662
 21
1061.658330466903
 31
0.0
 12
2112.582717533329
 22
1081.658330466903
 32
0.0
 13
2112.582717533329
 23
1081.658330466903
 33
0.0
  0
MTEXT
  5
277
330
265
100
AcDbEntity
  8
koty
 62
     0
100
AcDbMText
 10
2096.332717533328
 20
661.1583304669039
 30
0.0
 40
20.0
 41
0.0
 71
     5
 72
     1
  1
841
 11
0.0000000000000001
 21
1.0
 31
0.0
 73
     1
 44
1.0
  0
POINT
  5
278
330
265
100
AcDbEntity
  8
Defpoints
 62
     0
100
AcDbPoint
 10
2007.906819961732
 20
240.6583304669037
 30
0.0
  0
POINT
  5
279
330
265
100
AcDbEntity
  8
Defpoints
 62
     0
100
AcDbPoint
 10
1706.482058883239
 20
1081.658330466903
 30
0.0
  0
POINT
  5
27A
330
265
100
AcDbEntity
  8
Defpoints
 62
     0
100
AcDbPoint
 10
2112.582717533329
 20
1081.658330466903
 30
0.0
  0
ENDBLK
  5
270
330
265
100
AcDbEntity
  8
0
100
AcDbBlockEnd
  0
BLOCK
  5
287
330
27D
100
AcDbEntity
  8
0
100
AcDbBlockBegin
  2
*D6
 70
     1
 10
0.0
 20
0.0
 30
0.0
  3
*D6
  1

  0
LINE
  5
28A
330
27D
100
AcDbEntity
  8
koty
 62
     0
370
    -2
100
AcDbLine
 10
1841.406819961732
 20
1083.908330466903
 30
0.0
 11
1841.406819961732
 21
1187.287454158625
 31
0.0
  0
LINE
  5
28B
330
27D
100
AcDbEntity
  8
koty
 62
     0
370
    -2
100
AcDbLine
 10
1614.406819961732
 20
1008.908330466904
 30
0.0
 11
1614.406819961732
 21
1187.287454158625
 31
0.0
  0
LINE
  5
28C
330
27D
100
AcDbEntity
  8
koty
 62
     0
370
    -2
100
AcDbLine
 10
1821.406819961732
 20
1174.787454158625
 30
0.0
 11
1634.406819961732
 21
1174.787454158625
 31
0.0
  0
SOLID
  5
28D
330
27D
100
AcDbEntity
  8
koty
 62
     0
100
AcDbTrace
 10
1821.406819961732
 20
1178.120787491958
 30
0.0
 11
1821.406819961732
 21
1171.454120825291
 31
0.0
 12
1841.406819961732
 22
1174.787454158625
 32
0.0
 13
1841.406819961732
 23
1174.787454158625
 33
0.0
  0
SOLID
  5
28E
330
27D
100
AcDbEntity
  8
koty
 62
     0
100
AcDbTrace
 10
1634.406819961732
 20
1178.120787491958
 30
0.0
 11
1634.406819961732
 21
1171.454120825291
 31
0.0
 12
1614.406819961732
 22
1174.787454158625
 32
0.0
 13
1614.406819961732
 23
1174.787454158625
 33
0.0
  0
MTEXT
  5
28F
330
27D
100
AcDbEntity
  8
koty
 62
     0
100
AcDbMText
 10
1727.906819961732
 20
1191.037454158625
 30
0.0
 40
20.0
 41
0.0
 71
     5
 72
     1
  1
227
 73
     1
 44
1.0
  0
POINT
  5
290
330
27D
100
AcDbEntity
  8
Defpoints
 62
     0
100
AcDbPoint
 10
1841.406819961732
 20
1077.658330466903
 30
0.0
  0
POINT
  5
291
330
27D
100
AcDbEntity
  8
Defpoints
 62
     0
100
AcDbPoint
 10
1614.406819961732
 20
1002.658330466904
 30
0.0
  0
POINT
  5
292
330
27D
100
AcDbEntity
  8
Defpoints
 62
     0
100
AcDbPoint
 10
1614.406819961732
 20
1174.787454158625
 30
0.0
  0
ENDBLK
  5
288
330
27D
100
AcDbEntity
  8
0
100
AcDbBlockEnd
  0
ENDSEC
  0
SECTION
  2
ENTITIES
  0
CIRCLE
  5
16C
330
1F
100
AcDbEntity
  8
0
100
AcDbCircle
 10
835.6224866995416
 20
797.6583304669039
 30
0.0
 40
200.0
  0
LINE
  5
16D
330
1F
100
AcDbEntity
  8
0
100
AcDbLine
 10
545.6224866995418
 20
797.6583304669039
 30
0.0
 11
545.6224866995417
 21
797.6583304669039
 31
0.0
  0
LINE
  5
16E
102
{ACAD_REACTORS
330
21B
102
}
330
1F
100
AcDbEntity
  8
0
100
AcDbLine
 10
535.6224866995416
 20
787.6583304669038
 30
0.0
 11
535.6224866995416
 21
250.6583304669038
 31
0.0
  0
LINE
  5
16F
330
1F
100
AcDbEntity
  8
0
100
AcDbLine
 10
545.6224866995417
 20
240.6583304669038
 30
0.0
 11
676.9497671347304
 21
240.6583304669038
 31
0.0
  0
LINE
  5
172
330
1F
100
AcDbEntity
  8
0
100
AcDbLine
 10
826.2057726466572
 20
1081.658330466903
 30
0.0
 11
845.0392007524255
 21
1081.658330466903
 31
0.0
  0
LINE
  5
173
330
1F
100
AcDbEntity
  8
0
100
AcDbLine
 10
555.6224866995417
 20
787.6583304669038
 30
0.0
 11
555.622486699542
 21
270.6583304669038
 31
0.0
  0
LINE
  5
174
330
1F
100
AcDbEntity
  8
0
100
AcDbLine
 10
682.8574525923045
 20
242.5899196856924
 30
0.0
 11
731.2169602387695
 21
277.998721716911
 31
0.0
  0
LINE
  5
175
330
1F
100
AcDbEntity
  8
0
100
AcDbLine
 10
737.1246456963436
 20
279.9303109356997
 30
0.0
 11
835.6224866995415
 21
279.9303109356997
 31
0.0
  0
LINE
  5
176
330
1F
100
AcDbEntity
  8
0
100
AcDbLine
 10
565.622486699542
 20
260.6583304669038
 30
0.0
 11
670.4105252178735
 21
260.6583304669038
 31
0.0
  0
LINE
  5
177
330
1F
100
AcDbEntity
  8
0
100
AcDbLine
 10
676.3182106754476
 20
262.5899196856924
 30
0.0
 11
724.677718321913
 21
297.9987217169112
 31
0.0
  0
LINE
  5
178
330
1F
100
AcDbEntity
  8
0
100
AcDbLine
 10
730.5854037794871
 20
299.9303109356998
 30
0.0
 11
835.6224866995415
 21
299.9303109356997
 31
0.0
  0
ARC
  5
179
330
1F
100
AcDbEntity
  8
0
100
AcDbCircle
 10
565.622486699542
 20
270.6583304669038
 30
0.0
 40
10.0
100
AcDbArc
 50
180.0
 51
270.0
  0
ARC
  5
17A
330
1F
100
AcDbEntity
  8
0
100
AcDbCircle
 10
670.4105252178735
 20
270.6583304669038
 30
0.0
 40
10.0
100
AcDbArc
 50
270.0
 51
306.211565524577
  0
ARC
  5
17B
330
1F
100
AcDbEntity
  8
0
100
AcDbCircle
 10
730.5854037794871
 20
289.9303109356998
 30
0.0
 40
10.0
100
AcDbArc
 50
89.99999999999998
 51
126.2115655245771
  0
ARC
  5
17C
330
1F
100
AcDbEntity
  8
0
100
AcDbCircle
 10
737.1246456963436
 20
269.9303109356997
 30
0.0
 40
10.0
100
AcDbArc
 50
90.0
 51
126.2115655245771
  0
ARC
  5
17D
330
1F
100
AcDbEntity
  8
0
100
AcDbCircle
 10
676.9497671347304
 20
250.6583304669038
 30
0.0
 40
10.0
100
AcDbArc
 50
270.0
 51
306.2115655245771
  0
ARC
  5
17E
102
{ACAD_REACTORS
330
24B
102
}
330
1F
100
AcDbEntity
  8
0
100
AcDbCircle
 10
545.6224866995417
 20
250.6583304669038
 30
0.0
 40
10.0
100
AcDbArc
 50
180.0
 51
270.0
  0
ARC
  5
180
330
1F
100
AcDbEntity
  8
0
100
AcDbCircle
 10
1449.712622168946
 20
782.5153557967467
 30
0.0
 40
894.2183626081265
100
AcDbArc
 50
180.9703111096323
 51
213.8145210188992
  0
ARC
  5
181
330
1F
100
AcDbEntity
  8
0
100
AcDbCircle
 10
1449.712622168946
 20
782.5153557967467
 30
0.0
 40
914.2183626081266
100
AcDbArc
 50
192.0452404958317
 51
213.8669898479292
  0
LINE
  5
182
330
1F
100
AcDbEntity
  8
0
100
AcDbLine
 10
718.4541508436478
 20
240.6583304669037
 30
0.0
 11
835.6224866995415
 21
240.6583304669037
 31
0.0
  0
LINE
  5
183
330
1F
100
AcDbEntity
  8
0
100
AcDbLine
 10
728.7101961023753
 20
260.6583304669037
 30
0.0
 11
835.6224866995415
 21
260.6583304669038
 31
0.0
  0
ARC
  5
184
330
1F
100
AcDbEntity
  8
0
100
AcDbCircle
 10
1449.712622168946
 20
782.5153557967467
 30
0.0
 40
914.2183626081266
100
AcDbArc
 50
215.1210157883166
 51
216.0290482201353
  0
ARC
  5
185
330
1F
100
AcDbEntity
  8
0
100
AcDbCircle
 10
1449.712622168946
 20
782.5153557967467
 30
0.0
 40
894.2183626081265
100
AcDbArc
 50
215.0966216146124
 51
215.3718618983076
  0
ARC
  5
186
330
1F
100
AcDbEntity
  8
0
100
AcDbCircle
 10
718.4541508436478
 20
250.6583304669037
 30
0.0
 40
10.0
100
AcDbArc
 50
216.0290482201358
 51
270.0
  0
ARC
  5
187
330
1F
100
AcDbEntity
  8
0
100
AcDbCircle
 10
728.7101961023753
 20
270.6583304669037
 30
0.0
 40
10.0
100
AcDbArc
 50
215.3718618983075
 51
270.0
  0
ARC
  5
188
102
{ACAD_REACTORS
330
24B
102
}
330
1F
100
AcDbEntity
  8
0
100
AcDbCircle
 10
545.6224866995417
 20
787.6583304669038
 30
0.0
 40
10.0
100
AcDbArc
 50
90.0
 51
180.0
  0
ARC
  5
189
330
1F
100
AcDbEntity
  8
0
100
AcDbCircle
 10
545.6224866995418
 20
787.6583304669038
 30
0.0
 40
10.0
100
AcDbArc
 50
0.0000000000000509
 51
90.0
  0
LINE
  5
18A
330
1F
100
AcDbEntity
  8
0
100
AcDbLine
 10
1115.622486699541
 20
787.6583304669038
 30
0.0
 11
1115.622486699541
 21
270.6583304669038
 31
0.0
  0
LINE
  5
18B
102
{ACAD_REACTORS
330
21B
102
}
330
1F
100
AcDbEntity
  8
0
100
AcDbLine
 10
1135.622486699541
 20
787.6583304669038
 30
0.0
 11
1135.622486699541
 21
250.6583304669038
 31
0.0
  0
ARC
  5
18C
330
1F
100
AcDbEntity
  8
0
100
AcDbCircle
 10
1125.622486699541
 20
787.6583304669038
 30
0.0
 40
10.0
100
AcDbArc
 50
0.000000000000007
 51
90.0
  0
ARC
  5
18D
330
1F
100
AcDbEntity
  8
0
100
AcDbCircle
 10
1125.622486699541
 20
787.6583304669038
 30
0.0
 40
10.0
100
AcDbArc
 50
90.0
 51
179.9999999999999
  0
ARC
  5
18E
330
1F
100
AcDbEntity
  8
0
100
AcDbCircle
 10
221.5323512301367
 20
782.5153557967467
 30
0.0
 40
894.2183626081265
100
AcDbArc
 50
326.1854789811007
 51
359.0296888903676
  0
ARC
  5
18F
330
1F
100
AcDbEntity
  8
0
100
AcDbCircle
 10
221.5323512301367
 20
782.5153557967467
 30
0.0
 40
914.2183626081266
100
AcDbArc
 50
326.1330101520707
 51
347.9547595041682
  0
ARC
  5
190
330
1F
100
AcDbEntity
  8
0
100
AcDbCircle
 10
1125.622486699541
 20
250.6583304669038
 30
0.0
 40
10.0
100
AcDbArc
 50
270.0
 51
0.000000000000007
  0
LINE
  5
191
330
1F
100
AcDbEntity
  8
0
100
AcDbLine
 10
1125.622486699541
 20
240.6583304669038
 30
0.0
 11
994.2952062643525
 21
240.6583304669038
 31
0.0
  0
LINE
  5
192
330
1F
100
AcDbEntity
  8
0
100
AcDbLine
 10
1105.62248669954
 20
260.6583304669038
 30
0.0
 11
1000.834448181209
 21
260.6583304669038
 31
0.0
  0
ARC
  5
193
330
1F
100
AcDbEntity
  8
0
100
AcDbCircle
 10
1105.62248669954
 20
270.6583304669038
 30
0.0
 40
10.0
100
AcDbArc
 50
270.0
 51
0.000000000000007
  0
LINE
  5
194
330
1F
100
AcDbEntity
  8
0
100
AcDbLine
 10
994.9267627236352
 20
262.5899196856924
 30
0.0
 11
946.5672550771698
 21
297.9987217169112
 31
0.0
  0
ARC
  5
195
330
1F
100
AcDbEntity
  8
0
100
AcDbCircle
 10
994.2952062643525
 20
250.6583304669038
 30
0.0
 40
10.0
100
AcDbArc
 50
233.7884344754228
 51
270.0
  0
ARC
  5
196
330
1F
100
AcDbEntity
  8
0
100
AcDbCircle
 10
1000.834448181209
 20
270.6583304669038
 30
0.0
 40
10.0
100
AcDbArc
 50
233.7884344754229
 51
270.0
  0
LINE
  5
197
330
1F
100
AcDbEntity
  8
0
100
AcDbLine
 10
988.3875208067784
 20
242.5899196856924
 30
0.0
 11
940.0280131603134
 21
277.998721716911
 31
0.0
  0
ARC
  5
198
330
1F
100
AcDbEntity
  8
0
100
AcDbCircle
 10
221.5323512301367
 20
782.5153557967467
 30
0.0
 40
914.2183626081266
100
AcDbArc
 50
323.9709517798646
 51
324.8789842116833
  0
ARC
  5
199
330
1F
100
AcDbEntity
  8
0
100
AcDbCircle
 10
221.5323512301367
 20
782.5153557967467
 30
0.0
 40
894.2183626081265
100
AcDbArc
 50
324.6281381016923
 51
324.9033783853876
  0
ARC
  5
19A
330
1F
100
AcDbEntity
  8
0
100
AcDbCircle
 10
942.5347772967075
 20
270.6583304669037
 30
0.0
 40
10.0
100
AcDbArc
 50
270.0
 51
324.6281381016924
  0
ARC
  5
19B
330
1F
100
AcDbEntity
  8
0
100
AcDbCircle
 10
934.1203277027393
 20
269.9303109356997
 30
0.0
 40
10.0
100
AcDbArc
 50
53.78843447542283
 51
90.0
  0
ARC
  5
19C
330
1F
100
AcDbEntity
  8
0
100
AcDbCircle
 10
940.6595696195958
 20
289.9303109356998
 30
0.0
 40
10.0
100
AcDbArc
 50
53.78843447542289
 51
90.00000000000003
  0
LINE
  5
19D
330
1F
100
AcDbEntity
  8
0
100
AcDbLine
 10
940.6595696195958
 20
299.9303109356998
 30
0.0
 11
835.6224866995415
 21
299.9303109356997
 31
0.0
  0
LINE
  5
19E
330
1F
100
AcDbEntity
  8
0
100
AcDbLine
 10
934.1203277027393
 20
279.9303109356997
 30
0.0
 11
835.6224866995415
 21
279.9303109356997
 31
0.0
  0
LINE
  5
19F
330
1F
100
AcDbEntity
  8
0
100
AcDbLine
 10
942.5347772967075
 20
260.6583304669037
 30
0.0
 11
835.6224866995415
 21
260.6583304669038
 31
0.0
  0
LINE
  5
1A0
330
1F
100
AcDbEntity
  8
0
100
AcDbLine
 10
952.7908225554352
 20
240.6583304669037
 30
0.0
 11
835.6224866995415
 21
240.6583304669037
 31
0.0
  0
ARC
  5
1A1
330
1F
100
AcDbEntity
  8
0
100
AcDbCircle
 10
952.7908225554352
 20
250.6583304669037
 30
0.0
 40
10.0
100
AcDbArc
 50
270.0
 51
323.9709517798641
  0
LINE
  5
1A4
330
1F
100
AcDbEntity
  8
0
100
AcDbLine
 10
1035.622486699541
 20
797.6583304669039
 30
0.0
 11
635.6224866995416
 21
797.6583304669039
 31
0.0
  0
CIRCLE
  5
1A6
330
1F
100
AcDbEntity
  8
0
100
AcDbCircle
 10
835.6224866995416
 20
797.6583304669039
 30
0.0
 40
279.9999999999998
  0
LWPOLYLINE
  5
1A7
102
{ACAD_REACTORS
330
1C7
330
233
102
}
330
1F
100
AcDbEntity
  8
0
100
AcDbPolyline
 90
        3
 70
     0
 43
0.0
 10
635.6224866995416
 20
797.6583304669039
 42
0.9999999999999998
 10
1035.622486699541
 20
797.6583304669039
 10
635.6224866995416
 20
797.6583304669039
  0
CIRCLE
  5
1A8
330
1F
100
AcDbEntity
  8
0
100
AcDbCircle
 10
835.6224866995416
 20
797.6583304669039
 30
0.0
 40
84.12088430608816
  0
ARC
  5
1A9
330
1F
100
AcDbEntity
  8
0
100
AcDbCircle
 10
835.6224866995415
 20
797.6583304669039
 30
0.0
 40
176.7051735823245
100
AcDbArc
 50
78.80302660629435
 51
101.1969733937056
  0
LINE
  5
1AA
330
1F
100
AcDbEntity
  8
0
100
AcDbLine
 10
801.3094285462056
 20
970.9999942725948
 30
0.0
 11
788.2713063984065
 21
920.8356809134329
 31
0.0
  0
LINE
  5
1AB
330
1F
100
AcDbEntity
  8
0
100
AcDbLine
 10
788.2713063984065
 20
920.8356809134329
 30
0.0
 11
802.7967239622659
 21
875.1102024723909
 31
0.0
  0
LINE
  5
1AC
330
1F
100
AcDbEntity
  8
0
100
AcDbLine
 10
869.9355448528775
 20
970.9999942725948
 30
0.0
 11
882.9736670006766
 21
920.8356809134329
 31
0.0
  0
LINE
  5
1AD
330
1F
100
AcDbEntity
  8
0
100
AcDbLine
 10
882.9736670006766
 20
920.8356809134329
 30
0.0
 11
868.4482494368172
 21
875.1102024723909
 31
0.0
  0
LINE
  5
1AE
330
1F
100
AcDbEntity
  8
0
100
AcDbLine
 10
705.2721818914214
 20
818.2396806502081
 30
0.0
 11
752.1343166034912
 21
807.9563220405661
 31
0.0
  0
LINE
  5
1AF
330
1F
100
AcDbEntity
  8
0
100
AcDbLine
 10
668.3476732328837
 20
854.6131823274278
 30
0.0
 11
705.2721818914214
 21
818.2396806502081
 31
0.0
  0
ARC
  5
1B0
330
1F
100
AcDbEntity
  8
0
100
AcDbCircle
 10
835.6224866995416
 20
797.6583304669037
 30
0.0
 40
176.7051735823245
100
AcDbArc
 50
138.8030266062943
 51
161.1969733937056
  0
LINE
  5
1B1
330
1F
100
AcDbEntity
  8
0
100
AcDbLine
 10
702.6607313862196
 20
914.045142412071
 30
0.0
 11
752.6233621925565
 21
900.2543307301287
 31
0.0
  0
LINE
  5
1B2
330
1F
100
AcDbEntity
  8
0
100
AcDbLine
 10
752.6233621925565
 20
900.2543307301287
 30
0.0
 11
784.9600793407669
 21
864.8122108987285
 31
0.0
  0
LINE
  5
1B3
330
1F
100
AcDbEntity
  8
0
100
AcDbLine
 10
752.6233621925566
 20
695.062330203679
 30
0.0
 11
784.9600793407669
 21
730.5044500350789
 31
0.0
  0
LINE
  5
1B4
330
1F
100
AcDbEntity
  8
0
100
AcDbLine
 10
702.6607313862196
 20
681.2715185217369
 30
0.0
 11
752.6233621925566
 21
695.062330203679
 31
0.0
  0
ARC
  5
1B5
330
1F
100
AcDbEntity
  8
0
100
AcDbCircle
 10
835.6224866995418
 20
797.6583304669039
 30
0.0
 40
176.7051735823245
100
AcDbArc
 50
198.8030266062943
 51
221.1969733937056
  0
LINE
  5
1B6
330
1F
100
AcDbEntity
  8
0
100
AcDbLine
 10
668.3476732328838
 20
740.70347860638
 30
0.0
 11
705.2721818914214
 21
777.0769802835996
 31
0.0
  0
LINE
  5
1B7
330
1F
100
AcDbEntity
  8
0
100
AcDbLine
 10
705.2721818914214
 20
777.0769802835996
 30
0.0
 11
752.1343166034912
 21
787.3603388932417
 31
0.0
  0
LINE
  5
1B8
330
1F
100
AcDbEntity
  8
0
100
AcDbLine
 10
882.9736670006766
 20
674.4809800203748
 30
0.0
 11
868.4482494368173
 21
720.2064584614169
 31
0.0
  0
LINE
  5
1B9
330
1F
100
AcDbEntity
  8
0
100
AcDbLine
 10
869.9355448528775
 20
624.3166666612129
 30
0.0
 11
882.9736670006766
 21
674.4809800203748
 31
0.0
  0
ARC
  5
1BA
330
1F
100
AcDbEntity
  8
0
100
AcDbCircle
 10
835.6224866995416
 20
797.6583304669039
 30
0.0
 40
176.7051735823245
100
AcDbArc
 50
258.8030266062943
 51
281.1969733937056
  0
LINE
  5
1BB
330
1F
100
AcDbEntity
  8
0
100
AcDbLine
 10
801.3094285462058
 20
624.3166666612129
 30
0.0
 11
788.2713063984066
 21
674.4809800203748
 31
0.0
  0
LINE
  5
1BC
330
1F
100
AcDbEntity
  8
0
100
AcDbLine
 10
788.2713063984066
 20
674.4809800203748
 30
0.0
 11
802.7967239622659
 21
720.2064584614169
 31
0.0
  0
LINE
  5
1BD
330
1F
100
AcDbEntity
  8
0
100
AcDbLine
 10
965.9727915076617
 20
777.0769802835993
 30
0.0
 11
919.1106567955921
 21
787.3603388932415
 31
0.0
  0
LINE
  5
1BE
330
1F
100
AcDbEntity
  8
0
100
AcDbLine
 10
1002.897300166199
 20
740.7034786063798
 30
0.0
 11
965.9727915076617
 21
777.0769802835993
 31
0.0
  0
ARC
  5
1BF
330
1F
100
AcDbEntity
  8
0
100
AcDbCircle
 10
835.6224866995415
 20
797.6583304669035
 30
0.0
 40
176.7051735823245
100
AcDbArc
 50
318.8030266062943
 51
341.1969733937056
  0
LINE
  5
1C0
330
1F
100
AcDbEntity
  8
0
100
AcDbLine
 10
968.5842420128635
 20
681.2715185217366
 30
0.0
 11
918.6216112065267
 21
695.062330203679
 31
0.0
  0
LINE
  5
1C1
330
1F
100
AcDbEntity
  8
0
100
AcDbLine
 10
918.6216112065267
 20
695.062330203679
 30
0.0
 11
886.2848940583162
 21
730.5044500350788
 31
0.0
  0
LINE
  5
1C2
330
1F
100
AcDbEntity
  8
0
100
AcDbLine
 10
918.6216112065269
 20
900.2543307301284
 30
0.0
 11
886.2848940583162
 21
864.8122108987285
 31
0.0
  0
LINE
  5
1C3
330
1F
100
AcDbEntity
  8
0
100
AcDbLine
 10
968.5842420128638
 20
914.0451424120708
 30
0.0
 11
918.6216112065269
 21
900.2543307301284
 31
0.0
  0
ARC
  5
1C4
330
1F
100
AcDbEntity
  8
0
100
AcDbCircle
 10
835.6224866995415
 20
797.6583304669036
 30
0.0
 40
176.7051735823245
100
AcDbArc
 50
18.80302660629429
 51
41.19697339370558
  0
LINE
  5
1C5
330
1F
100
AcDbEntity
  8
0
100
AcDbLine
 10
1002.897300166199
 20
854.6131823274274
 30
0.0
 11
965.972791507662
 21
818.239680650208
 31
0.0
  0
LINE
  5
1C6
330
1F
100
AcDbEntity
  8
0
100
AcDbLine
 10
965.972791507662
 20
818.239680650208
 30
0.0
 11
919.110656795592
 21
807.9563220405658
 31
0.0
  0
HATCH
  5
1C7
330
1F
100
AcDbEntity
  8
srafy
100
AcDbHatch
 10
0.0
 20
0.0
 30
0.0
210
0.0
220
0.0
230
1.0
  2
NET
 70
     0
 71
     1
 91
        1
 92
        1
 93
        2
 72
     2
 10
835.6224866995415
 20
797.6583304669039
 40
199.9999999999998
 50
180.0
 51
360.0
 73
     1
 72
     1
 10
1035.622486699541
 20
797.6583304669039
 11
635.6224866995416
 21
797.6583304669039
 97
        1
330
1A7
 75
     0
 76
     1
 52
0.0
 41
5.0
 77
     0
 78
     2
 53
0.0
 43
0.0
 44
0.0
 45
0.0
 46
15.875
 79
     0
 53
90.0
 43
0.0
 44
0.0
 45
-15.875
 46
0.000000000000001
 79
     0
 98
        1
 10
0.0
 20
0.0
  0
LINE
  5
1C8
330
1F
100
AcDbEntity
  8
0
100
AcDbLine
 10
826.205772646657
 20
1081.658330466903
 30
0.0
 11
826.2057726466572
 21
1078.780472203031
 31
0.0
  0
LINE
  5
1C9
330
1F
100
AcDbEntity
  8
0
100
AcDbLine
 10
845.0392007524255
 20
1081.658330466903
 30
0.0
 11
845.0392007524257
 21
1078.780472203031
 31
0.0
  0
LINE
  5
1CF
330
1F
100
AcDbEntity
  8
0
100
AcDbLine
 10
2002.073080140767
 20
240.6583304669037
 30
0.0
 11
2007.906819961732
 21
240.6583304669037
 31
0.0
  0
LINE
  5
1D5
330
1F
100
AcDbEntity
  8
0
100
AcDbLine
 10
1841.406819961732
 20
517.6583304669038
 30
0.0
 11
1841.406819961732
 21
517.658330466904
 31
0.0
  0
LINE
  5
1D6
330
1F
100
AcDbEntity
  8
0
100
AcDbLine
 10
2002.073080140767
 20
240.6583304669037
 30
0.0
 11
2007.906819961732
 21
240.6583304669037
 31
0.0
  0
LINE
  5
1D9
102
{ACAD_REACTORS
330
27B
102
}
330
1F
100
AcDbEntity
  8
0
100
AcDbLine
 10
1706.482058883239
 20
1081.658330466903
 30
0.0
 11
1700.962236849784
 21
1081.658330466903
 31
0.0
  0
LINE
  5
1DA
102
{ACAD_REACTORS
330
293
102
}
330
1F
100
AcDbEntity
  8
0
100
AcDbLine
 10
1614.406819961732
 20
1002.658330466904
 30
0.0
 11
1614.406819961732
 21
592.6583304669038
 31
0.0
  0
LINE
  5
1DB
330
1F
100
AcDbEntity
  8
0
100
AcDbLine
 10
1841.406819961732
 20
1077.658330466903
 30
0.0
 11
1841.406819961732
 21
517.658330466904
 31
0.0
  0
LINE
  5
1DD
330
1F
100
AcDbEntity
  8
0
100
AcDbLine
 10
1619.406819961732
 20
1002.658330466904
 30
0.0
 11
1619.406819961732
 21
592.6583304669038
 31
0.0
  0
LINE
  5
1DE
330
1F
100
AcDbEntity
  8
0
100
AcDbLine
 10
1836.406819961732
 20
592.658330466904
 30
0.0
 11
1836.406819961732
 21
522.6583304669039
 31
0.0
  0
LINE
  5
1DF
330
1F
100
AcDbEntity
  8
0
100
AcDbLine
 10
1614.406819961732
 20
1002.658330466904
 30
0.0
 11
1619.406819961732
 21
1002.658330466904
 31
0.0
  0
LINE
  5
1E0
330
1F
100
AcDbEntity
  8
0
100
AcDbLine
 10
1614.406819961732
 20
592.6583304669038
 30
0.0
 11
1619.406819961732
 21
592.6583304669038
 31
0.0
  0
LINE
  5
1E1
330
1F
100
AcDbEntity
  8
0
100
AcDbLine
 10
1619.406819961732
 20
597.6583304669039
 30
0.0
 11
1831.406819961732
 21
597.6583304669039
 31
0.0
  0
LINE
  5
1E2
330
1F
100
AcDbEntity
  8
0
100
AcDbLine
 10
1619.406819961732
 20
997.6583304669041
 30
0.0
 11
1831.406819961732
 21
997.6583304669038
 31
0.0
  0
ARC
  5
1E5
330
1F
100
AcDbEntity
  8
0
100
AcDbCircle
 10
1841.406819961732
 20
522.6583304669039
 30
0.0
 40
5.0
100
AcDbArc
 50
180.0
 51
270.0
  0
ARC
  5
1E6
330
1F
100
AcDbEntity
  8
0
100
AcDbCircle
 10
1831.406819961732
 20
592.658330466904
 30
0.0
 40
5.0
100
AcDbArc
 50
0.0
 51
90.0
  0
LINE
  5
1E7
330
1F
100
AcDbEntity
  8
0
100
AcDbLine
 10
1836.406819961732
 20
1072.658330466903
 30
0.0
 11
1836.406819961732
 21
1002.658330466903
 31
0.0
  0
ARC
  5
1E8
330
1F
100
AcDbEntity
  8
0
100
AcDbCircle
 10
1831.406819961732
 20
1002.658330466903
 30
0.0
 40
5.0
100
AcDbArc
 50
270.0
 51
0.0
  0
LINE
  5
1E9
330
1F
100
AcDbEntity
  8
0
100
AcDbLine
 10
1836.406819961732
 20
1002.658330466903
 30
0.0
 11
1836.406819961732
 21
592.658330466904
 31
0.0
  0
ARC
  5
1EA
102
{ACAD_REACTORS
330
293
102
}
330
1F
100
AcDbEntity
  8
0
100
AcDbCircle
 10
1841.406819961732
 20
1072.658330466903
 30
0.0
 40
5.0
100
AcDbArc
 50
90.0
 51
179.9999999999998
  0
LINE
  5
1EC
102
{ACAD_REACTORS
330
263
330
27B
102
}
330
1F
100
AcDbEntity
  8
0
100
AcDbLine
 10
2007.906819961732
 20
240.6583304669037
 30
0.0
 11
1841.406819961732
 21
517.6583304669041
 31
0.0
  0
LINE
  5
1ED
330
1F
100
AcDbEntity
  8
0
100
AcDbLine
 10
1446.735148048476
 20
243.9940740013632
 30
0.0
 11
1614.653112237875
 21
593.7403662775059
 31
0.0
  0
LINE
  5
1EE
330
1F
100
AcDbEntity
  8
0
100
AcDbLine
 10
1451.242563496191
 20
241.8300023801591
 30
0.0
 11
1619.16052768559
 21
591.5762946563018
 31
0.0
  0
LINE
  5
1EF
102
{ACAD_REACTORS
330
263
102
}
330
1F
100
AcDbEntity
  8
0
100
AcDbLine
 10
1447.906819961732
 20
240.6583304669037
 30
0.0
 11
1447.906819961732
 21
240.6583304669036
 31
0.0
  0
ARC
  5
1F1
330
1F
100
AcDbEntity
  8
0
100
AcDbCircle
 10
1448.988855772334
 20
242.9120381907612
 30
0.0
 40
2.5
100
AcDbArc
 50
154.3537027295042
 51
244.3537027295028
  0
ARC
  5
1F2
330
1F
100
AcDbEntity
  8
0
100
AcDbCircle
 10
1448.988855772334
 20
242.9120381907611
 30
0.0
 40
2.5
100
AcDbArc
 50
244.3537027295069
 51
334.3537027295042
  0
LINE
  5
1F3
330
1F
100
AcDbEntity
  8
0
100
AcDbLine
 10
2002.073080140767
 20
240.6583304669037
 30
0.0
 11
1787.486437541489
 21
597.6583304669039
 31
0.0
  0
LINE
  5
1F4
330
1F
100
AcDbEntity
  8
0
100
AcDbLine
 10
1836.406819961732
 20
525.9766487852225
 30
0.0
 11
1793.320177362454
 21
597.6583304669039
 31
0.0
  0
ARC
  5
1F7
330
1F
100
AcDbEntity
  8
0
100
AcDbCircle
 10
1895.07244456541
 20
1033.394250609263
 30
0.0
 40
204.3965645740459
100
AcDbArc
 50
173.9789535390297
 51
190.0691265308852
  0
LINE
  5
1F8
330
1F
100
AcDbEntity
  8
0
100
AcDbLine
 10
1693.000034715191
 20
1002.658330466904
 30
0.0
 11
1727.906819961732
 21
1002.658330466904
 31
0.0
  0
LINE
  5
1F9
330
1F
100
AcDbEntity
  8
0
100
AcDbLine
 10
1700.962236849784
 20
1081.658330466903
 30
0.0
 11
1702.308193073043
 21
1078.780472203031
 31
0.0
  0
LINE
  5
1FA
330
1F
100
AcDbEntity
  8
0
100
AcDbLine
 10
1706.482058883239
 20
1081.658330466903
 30
0.0
 11
1707.828015106497
 21
1078.780472203031
 31
0.0
  0
ARC
  5
1FF
330
1F
100
AcDbEntity
  8
0
100
AcDbCircle
 10
1560.741195358055
 20
1033.394250609263
 30
0.0
 40
204.3965645740459
100
AcDbArc
 50
349.9308734691148
 51
6.021046460970221
  0
LINE
  5
200
330
1F
100
AcDbEntity
  8
0
100
AcDbLine
 10
1762.813605208273
 20
1002.658330466904
 30
0.0
 11
1727.906819961732
 21
1002.658330466904
 31
0.0
  0
LINE
  5
201
330
1F
100
AcDbEntity
  8
0
100
AcDbLine
 10
1691.803447573863
 20
1054.834177654915
 30
0.0
 11
1764.010192349601
 21
1054.834177654915
 31
0.0
  0
LINE
  5
202
330
1F
100
AcDbEntity
  8
0
100
AcDbLine
 10
1702.308193073043
 20
1078.780472203031
 30
0.0
 11
1713.507724535596
 21
1054.834177654915
 31
0.0
  0
LINE
  5
203
330
1F
100
AcDbEntity
  8
0
100
AcDbLine
 10
1707.828015106497
 20
1078.780472203031
 30
0.0
 11
1719.027546569054
 21
1054.834177654915
 31
0.0
  0
DIMENSION
  5
204
102
{ACAD_XDICTIONARY
360
211
102
}
102
{ACAD_REACTORS
330
21B
102
}
330
1F
100
AcDbEntity
  8
koty
100
AcDbDimension
  2
*D1
 10
1135.622486699541
 20
137.4664921267376
 30
0.0
 11
835.6224866995415
 21
153.7164921267376
 31
0.0
 70
    32
 71
     5
 42
599.9999999999995
  3
ISO-25
100
AcDbAlignedDimension
 13
535.6224866995416
 23
250.6583304669038
 33
0.0
 14
1135.622486699541
 24
250.6583304669038
 34
0.0
100
AcDbRotatedDimension
  0
DIMENSION
  5
21C
102
{ACAD_XDICTIONARY
360
229
102
}
102
{ACAD_REACTORS
330
233
102
}
330
1F
100
AcDbEntity
  8
koty
100
AcDbDimension
  2
*D2
 10
1035.622486699541
 20
1174.787454158625
 30
0.0
 11
835.6224866995415
 21
1191.037454158625
 31
0.0
 70
    32
 71
     5
 42
399.9999999999997
  3
ISO-25
100
AcDbAlignedDimension
 13
635.6224866995416
 23
797.6583304669039
 33
0.0
 14
1035.622486699541
 24
797.6583304669039
 34
0.0
100
AcDbRotatedDimension
  0
DIMENSION
  5
234
102
{ACAD_XDICTIONARY
360
241
102
}
102
{ACAD_REACTORS
330
24B
102
}
330
1F
100
AcDbEntity
  8
koty
100
AcDbDimension
  2
*D3
 10
453.4731448893617
 20
240.6583304669038
 30
0.0
 11
437.2231448893617
 21
519.1583304669039
 31
0.0
 70
    32
 71
     5
 42
557.0
  3
ISO-25
100
AcDbAlignedDimension
 13
535.6224866995416
 23
797.6583304669039
 33
0.0
 14
545.6224866995417
 24
240.6583304669038
 34
0.0
 50
90.0
100
AcDbRotatedDimension
  0
DIMENSION
  5
24C
102
{ACAD_XDICTIONARY
360
259
102
}
102
{ACAD_REACTORS
330
263
102
}
330
1F
100
AcDbEntity
  8
koty
100
AcDbDimension
  2
*D4
 10
2007.906819961732
 20
137.4664921267376
 30
0.0
 11
1727.906819961732
 21
153.7164921267376
 31
0.0
 70
    32
 71
     5
 42
560.0
  3
ISO-25
100
AcDbAlignedDimension
 13
1447.906819961732
 23
240.6583304669036
 33
0.0
 14
2007.906819961732
 24
240.6583304669037
 34
0.0
100
AcDbRotatedDimension
  0
DIMENSION
  5
264
102
{ACAD_XDICTIONARY
360
271
102
}
102
{ACAD_REACTORS
330
27B
102
}
330
1F
100
AcDbEntity
  8
koty
100
AcDbDimension
  2
*D5
 10
2112.582717533329
 20
1081.658330466903
 30
0.0
 11
2096.332717533328
 21
661.1583304669039
 31
0.0
 70
    32
 71
     5
 42
840.9999999999994
  3
ISO-25
100
AcDbAlignedDimension
 13
2007.906819961732
 23
240.6583304669037
 33
0.0
 14
1706.482058883239
 24
1081.658330466903
 34
0.0
 50
90.0
100
AcDbRotatedDimension
  0
DIMENSION
  5
27C
102
{ACAD_XDICTIONARY
360
289
102
}
102
{ACAD_REACTORS
330
293
102
}
330
1F
100
AcDbEntity
  8
koty
100
AcDbDimension
  2
*D6
 10
1614.406819961732
 20
1174.787454158625
 30
0.0
 11
1727.906819961732
 21
1191.037454158625
 31
0.0
 70
    32
 71
     5
 42
226.9999999999997
  3
ISO-25
100
AcDbAlignedDimension
 13
1841.406819961732
 23
1077.658330466903
 33
0.0
 14
1614.406819961732
 24
1002.658330466904
 34
0.0
100
AcDbRotatedDimension
  0
TEXT
  5
294
330
1F
100
AcDbEntity
  8
popis
100
AcDbText
 10
830.9486726402974
 20
1291.016881975797
 30
0.0
 40
30.0
  1
PBT/4 400 - mobilní axiální ventilátor
100
AcDbText
  0
ENDSEC
  0
SECTION
  2
OBJECTS
  0
DICTIONARY
  5
C
330
0
100
AcDbDictionary
281
     1
  3
ACAD_GROUP
350
D
  3
ACAD_LAYOUT
350
1A
  3
ACAD_MLINESTYLE
350
17
  3
ACAD_PLOTSETTINGS
350
19
  3
ACAD_PLOTSTYLENAME
350
E
  3
AcDbVariableDictionary
350
2E
  0
DICTIONARY
  5
211
330
204
100
AcDbDictionary
280
     1
281
     1
  3
ACAD_DIMASSOC
360
21B
  0
DICTIONARY
  5
229
330
21C
100
AcDbDictionary
280
     1
281
     1
  3
ACAD_DIMASSOC
360
233
  0
DICTIONARY
  5
241
330
234
100
AcDbDictionary
280
     1
281
     1
  3
ACAD_DIMASSOC
360
24B
  0
DICTIONARY
  5
259
330
24C
100
AcDbDictionary
280
     1
281
     1
  3
ACAD_DIMASSOC
360
263
  0
DICTIONARY
  5
271
330
264
100
AcDbDictionary
280
     1
281
     1
  3
ACAD_DIMASSOC
360
27B
  0
DICTIONARY
  5
289
330
27C
100
AcDbDictionary
280
     1
281
     1
  3
ACAD_DIMASSOC
360
293
  0
DICTIONARY
  5
D
102
{ACAD_REACTORS
330
C
102
}
330
C
100
AcDbDictionary
281
     1
  0
DICTIONARY
  5
1A
102
{ACAD_REACTORS
330
C
102
}
330
C
100
AcDbDictionary
281
     1
  3
Model
350
22
  3
Rozvržení1
350
1E
  3
Rozvržení2
350
26
  0
DICTIONARY
  5
17
102
{ACAD_REACTORS
330
C
102
}
330
C
100
AcDbDictionary
281
     1
  3
Standard
350
18
  0
DICTIONARY
  5
19
102
{ACAD_REACTORS
330
C
102
}
330
C
100
AcDbDictionary
281
     1
  0
ACDBDICTIONARYWDFLT
  5
E
102
{ACAD_REACTORS
330
C
102
}
330
C
100
AcDbDictionary
281
     1
  3
Normal
350
F
100
AcDbDictionaryWithDefault
340
F
  0
DICTIONARY
  5
2E
102
{ACAD_REACTORS
330
C
102
}
330
C
100
AcDbDictionary
281
     1
  3
DIMASSOC
350
30
  3
HIDETEXT
350
2F
  0
DIMASSOC
  5
21B
102
{ACAD_REACTORS
330
211
102
}
330
211
100
AcDbDimAssoc
330
204
 90
        3
 70
     0
 71
     0
  1
AcDbOsnapPointRef
 72
     1
331
16E
 73
     2
 91
        0
 40
1.0
 10
535.6224866995416
 20
250.6583304669038
 30
0.0
 75
     0
  1
AcDbOsnapPointRef
 72
     1
331
18B
 73
     2
 91
        0
 40
1.0
 10
1135.622486699541
 20
250.6583304669038
 30
0.0
 75
     0
  0
DIMASSOC
  5
233
102
{ACAD_REACTORS
330
229
102
}
330
229
100
AcDbDimAssoc
330
21C
 90
        3
 70
     0
 71
     0
  1
AcDbOsnapPointRef
 72
    13
331
1A7
 73
     2
 91
        1
 40
3.141592653589793
 10
635.6224866995416
 20
797.6583304669039
 30
0.0
 75
     0
  1
AcDbOsnapPointRef
 72
     1
331
1A7
 73
     2
 91
        1
 40
6.283185307179586
 10
1035.622486699541
 20
797.6583304669039
 30
0.0
 75
     0
  0
DIMASSOC
  5
24B
102
{ACAD_REACTORS
330
241
102
}
330
241
100
AcDbDimAssoc
330
234
 90
        3
 70
     0
 71
     0
  1
AcDbOsnapPointRef
 72
     1
331
188
 73
     2
 91
        0
 40
0.0
 10
535.6224866995416
 20
797.6583304669039
 30
0.0
 75
     0
  1
AcDbOsnapPointRef
 72
     1
331
17E
 73
     2
 91
        0
 40
4.712388980384689
 10
545.6224866995417
 20
240.6583304669038
 30
0.0
 75
     0
  0
DIMASSOC
  5
263
102
{ACAD_REACTORS
330
259
102
}
330
259
100
AcDbDimAssoc
330
24C
 90
        3
 70
     0
 71
     0
  1
AcDbOsnapPointRef
 72
     1
331
1EF
 73
     2
 91
        0
 40
1.0
 10
1447.906819961732
 20
240.6583304669036
 30
0.0
 75
     0
  1
AcDbOsnapPointRef
 72
    13
331
1EC
 73
     2
 91
        0
 40
0.0
 10
2007.906819961732
 20
240.6583304669037
 30
0.0
 75
     0
  0
DIMASSOC
  5
27B
102
{ACAD_REACTORS
330
271
102
}
330
271
100
AcDbDimAssoc
330
264
 90
        3
 70
     0
 71
     0
  1
AcDbOsnapPointRef
 72
    13
331
1EC
 73
     2
 91
        0
 40
0.0
 10
2007.906819961732
 20
240.6583304669037
 30
0.0
 75
     0
  1
AcDbOsnapPointRef
 72
    13
331
1D9
 73
     2
 91
        0
 40
0.0
 10
1706.482058883239
 20
1081.658330466903
 30
0.0
 75
     0
  0
DIMASSOC
  5
293
102
{ACAD_REACTORS
330
289
102
}
330
289
100
AcDbDimAssoc
330
27C
 90
        3
 70
     0
 71
     0
  1
AcDbOsnapPointRef
 72
    13
331
1EA
 73
     2
 91
        0
 40
1.570796326794896
 10
1841.406819961732
 20
1077.658330466903
 30
0.0
 75
     0
  1
AcDbOsnapPointRef
 72
    13
331
1DA
 73
     2
 91
        0
 40
0.0
 10
1614.406819961732
 20
1002.658330466904
 30
0.0
 75
     0
  0
LAYOUT
  5
22
102
{ACAD_REACTORS
330
1A
102
}
330
1A
100
AcDbPlotSettings
  1

  2
D:\AutoCAD 2002Cz\plotters\PublishToWeb DWF.pc3
  4

  6

 40
0.0
 41
0.0
 42
0.0
 43
0.0
 44
0.0
 45
0.0
 46
0.0
 47
0.0
 48
0.0
 49
0.0
140
0.0
141
0.0
142
1.0
143
1.0
 70
  1712
 72
     0
 73
     0
 74
     0
  7

 75
     0
147
1.0
148
0.0
149
0.0
100
AcDbLayout
  1
Model
 70
     1
 71
     0
 10
0.0
 20
0.0
 11
12.0
 21
9.0
 12
0.0
 22
0.0
 32
0.0
 14
0.0
 24
0.0
 34
0.0
 15
0.0
 25
0.0
 35
0.0
146
0.0
 13
0.0
 23
0.0
 33
0.0
 16
1.0
 26
0.0
 36
0.0
 17
0.0
 27
1.0
 37
0.0
 76
     0
330
1F
  0
LAYOUT
  5
1E
102
{ACAD_REACTORS
330
1A
102
}
330
1A
100
AcDbPlotSettings
  1

  2
D:\AutoCAD 2002Cz\plotters\PublishToWeb DWF.pc3
  4

  6

 40
0.0
 41
0.0
 42
0.0
 43
0.0
 44
0.0
 45
0.0
 46
0.0
 47
0.0
 48
0.0
 49
0.0
140
0.0
141
0.0
142
1.0
143
1.0
 70
   688
 72
     0
 73
     0
 74
     5
  7

 75
    16
147
1.0
148
0.0
149
0.0
100
AcDbLayout
  1
Rozvržení1
 70
     1
 71
     1
 10
0.0
 20
0.0
 11
420.0
 21
297.0
 12
0.0
 22
0.0
 32
0.0
 14
1.000000000000000E+20
 24
1.000000000000000E+20
 34
1.000000000000000E+20
 15
-1.000000000000000E+20
 25
-1.000000000000000E+20
 35
-1.000000000000000E+20
146
0.0
 13
0.0
 23
0.0
 33
0.0
 16
1.0
 26
0.0
 36
0.0
 17
0.0
 27
1.0
 37
0.0
 76
     0
330
1B
  0
LAYOUT
  5
26
102
{ACAD_REACTORS
330
1A
102
}
330
1A
100
AcDbPlotSettings
  1

  2
D:\AutoCAD 2002Cz\plotters\PublishToWeb DWF.pc3
  4

  6

 40
0.0
 41
0.0
 42
0.0
 43
0.0
 44
0.0
 45
0.0
 46
0.0
 47
0.0
 48
0.0
 49
0.0
140
0.0
141
0.0
142
1.0
143
1.0
 70
   688
 72
     0
 73
     0
 74
     5
  7

 75
    16
147
1.0
148
0.0
149
0.0
100
AcDbLayout
  1
Rozvržení2
 70
     1
 71
     2
 10
0.0
 20
0.0
 11
12.0
 21
9.0
 12
0.0
 22
0.0
 32
0.0
 14
0.0
 24
0.0
 34
0.0
 15
0.0
 25
0.0
 35
0.0
146
0.0
 13
0.0
 23
0.0
 33
0.0
 16
1.0
 26
0.0
 36
0.0
 17
0.0
 27
1.0
 37
0.0
 76
     0
330
23
  0
MLINESTYLE
  5
18
102
{ACAD_REACTORS
330
17
102
}
330
17
100
AcDbMlineStyle
  2
STANDARD
 70
     0
  3

 62
   256
 51
90.0
 52
90.0
 71
     2
 49
0.5
 62
   256
  6
BYLAYER
 49
-0.5
 62
   256
  6
BYLAYER
  0
ACDBPLACEHOLDER
  5
F
102
{ACAD_REACTORS
330
E
102
}
330
E
  0
DICTIONARYVAR
  5
30
102
{ACAD_REACTORS
330
2E
102
}
330
2E
100
DictionaryVariables
280
     0
  1
2
  0
DICTIONARYVAR
  5
2F
102
{ACAD_REACTORS
330
2E
102
}
330
2E
100
DictionaryVariables
280
     0
  1
1
  0
ENDSEC
  0
EOF
