  0
SECTION
  2
HEADER
  9
$ACADVER
  1
AC1015
  9
$ACADMAINTVER
 70
    13
  9
$DWGCODEPAGE
  3
ANSI_1250
  9
$INSBASE
 10
0.0
 20
0.0
 30
0.0
  9
$EXTMIN
 10
200.709021163102
 20
390.5029695313787
 30
0.0
  9
$EXTMAX
 10
1000.709021163102
 20
1066.458151984114
 30
0.0
  9
$LIMMIN
 10
0.0
 20
0.0
  9
$LIMMAX
 10
420.0
 20
297.0
  9
$ORTHOMODE
 70
     0
  9
$REGENMODE
 70
     1
  9
$FILLMODE
 70
     1
  9
$QTEXTMODE
 70
     0
  9
$MIRRTEXT
 70
     1
  9
$LTSCALE
 40
1.0
  9
$ATTMODE
 70
     1
  9
$TEXTSIZE
 40
20.0
  9
$TRACEWID
 40
1.0
  9
$TEXTSTYLE
  7
Standard
  9
$CLAYER
  8
popis
  9
$CELTYPE
  6
ByLayer
  9
$CECOLOR
 62
   256
  9
$CELTSCALE
 40
1.0
  9
$DISPSILH
 70
     0
  9
$DIMSCALE
 40
10.0
  9
$DIMASZ
 40
2.0
  9
$DIMEXO
 40
0.625
  9
$DIMDLI
 40
3.75
  9
$DIMRND
 40
0.0
  9
$DIMDLE
 40
0.0
  9
$DIMEXE
 40
1.25
  9
$DIMTP
 40
0.0
  9
$DIMTM
 40
0.0
  9
$DIMTXT
 40
2.0
  9
$DIMCEN
 40
2.5
  9
$DIMTSZ
 40
0.0
  9
$DIMTOL
 70
     0
  9
$DIMLIM
 70
     0
  9
$DIMTIH
 70
     0
  9
$DIMTOH
 70
     0
  9
$DIMSE1
 70
     0
  9
$DIMSE2
 70
     0
  9
$DIMTAD
 70
     1
  9
$DIMZIN
 70
     8
  9
$DIMBLK
  1

  9
$DIMASO
 70
     1
  9
$DIMSHO
 70
     1
  9
$DIMPOST
  1

  9
$DIMAPOST
  1

  9
$DIMALT
 70
     0
  9
$DIMALTD
 70
     3
  9
$DIMALTF
 40
0.03937007874016
  9
$DIMLFAC
 40
1.0
  9
$DIMTOFL
 70
     1
  9
$DIMTVP
 40
0.0
  9
$DIMTIX
 70
     0
  9
$DIMSOXD
 70
     0
  9
$DIMSAH
 70
     0
  9
$DIMBLK1
  1

  9
$DIMBLK2
  1

  9
$DIMSTYLE
  2
ISO-25
  9
$DIMCLRD
 70
     0
  9
$DIMCLRE
 70
     0
  9
$DIMCLRT
 70
     0
  9
$DIMTFAC
 40
1.0
  9
$DIMGAP
 40
0.625
  9
$DIMJUST
 70
     0
  9
$DIMSD1
 70
     0
  9
$DIMSD2
 70
     0
  9
$DIMTOLJ
 70
     0
  9
$DIMTZIN
 70
     8
  9
$DIMALTZ
 70
     0
  9
$DIMALTTZ
 70
     0
  9
$DIMUPT
 70
     0
  9
$DIMDEC
 70
     2
  9
$DIMTDEC
 70
     2
  9
$DIMALTU
 70
     2
  9
$DIMALTTD
 70
     3
  9
$DIMTXSTY
  7
Standard
  9
$DIMAUNIT
 70
     0
  9
$DIMADEC
 70
     0
  9
$DIMALTRND
 40
0.0
  9
$DIMAZIN
 70
     0
  9
$DIMDSEP
 70
    44
  9
$DIMATFIT
 70
     3
  9
$DIMFRAC
 70
     0
  9
$DIMLDRBLK
  1

  9
$DIMLUNIT
 70
     2
  9
$DIMLWD
 70
    -2
  9
$DIMLWE
 70
    -2
  9
$DIMTMOVE
 70
     0
  9
$LUNITS
 70
     2
  9
$LUPREC
 70
     4
  9
$SKETCHINC
 40
1.0
  9
$FILLETRAD
 40
5.0
  9
$AUNITS
 70
     0
  9
$AUPREC
 70
     0
  9
$MENU
  1
.
  9
$ELEVATION
 40
0.0
  9
$PELEVATION
 40
0.0
  9
$THICKNESS
 40
0.0
  9
$LIMCHECK
 70
     0
  9
$CHAMFERA
 40
10.0
  9
$CHAMFERB
 40
10.0
  9
$CHAMFERC
 40
20.0
  9
$CHAMFERD
 40
0.0
  9
$SKPOLY
 70
     0
  9
$TDCREATE
 40
2453639.692351574
  9
$TDUCREATE
 40
2453639.650684907
  9
$TDUPDATE
 40
2453675.540002106
  9
$TDUUPDATE
 40
2453675.498335440
  9
$TDINDWG
 40
0.0951308333
  9
$TDUSRTIMER
 40
0.0951302546
  9
$USRTIMER
 70
     1
  9
$ANGBASE
 50
0.0
  9
$ANGDIR
 70
     0
  9
$PDMODE
 70
     0
  9
$PDSIZE
 40
0.0
  9
$PLINEWID
 40
0.0
  9
$SPLFRAME
 70
     0
  9
$SPLINETYPE
 70
     6
  9
$SPLINESEGS
 70
     8
  9
$HANDSEED
  5
1FF
  9
$SURFTAB1
 70
     6
  9
$SURFTAB2
 70
     6
  9
$SURFTYPE
 70
     6
  9
$SURFU
 70
     6
  9
$SURFV
 70
     6
  9
$UCSBASE
  2

  9
$UCSNAME
  2

  9
$UCSORG
 10
0.0
 20
0.0
 30
0.0
  9
$UCSXDIR
 10
1.0
 20
0.0
 30
0.0
  9
$UCSYDIR
 10
0.0
 20
1.0
 30
0.0
  9
$UCSORTHOREF
  2

  9
$UCSORTHOVIEW
 70
     1
  9
$UCSORGTOP
 10
0.0
 20
0.0
 30
0.0
  9
$UCSORGBOTTOM
 10
0.0
 20
0.0
 30
0.0
  9
$UCSORGLEFT
 10
0.0
 20
0.0
 30
0.0
  9
$UCSORGRIGHT
 10
0.0
 20
0.0
 30
0.0
  9
$UCSORGFRONT
 10
0.0
 20
0.0
 30
0.0
  9
$UCSORGBACK
 10
0.0
 20
0.0
 30
0.0
  9
$PUCSBASE
  2

  9
$PUCSNAME
  2

  9
$PUCSORG
 10
0.0
 20
0.0
 30
0.0
  9
$PUCSXDIR
 10
1.0
 20
0.0
 30
0.0
  9
$PUCSYDIR
 10
0.0
 20
1.0
 30
0.0
  9
$PUCSORTHOREF
  2

  9
$PUCSORTHOVIEW
 70
     0
  9
$PUCSORGTOP
 10
0.0
 20
0.0
 30
0.0
  9
$PUCSORGBOTTOM
 10
0.0
 20
0.0
 30
0.0
  9
$PUCSORGLEFT
 10
0.0
 20
0.0
 30
0.0
  9
$PUCSORGRIGHT
 10
0.0
 20
0.0
 30
0.0
  9
$PUCSORGFRONT
 10
0.0
 20
0.0
 30
0.0
  9
$PUCSORGBACK
 10
0.0
 20
0.0
 30
0.0
  9
$USERI1
 70
     0
  9
$USERI2
 70
     0
  9
$USERI3
 70
     0
  9
$USERI4
 70
     0
  9
$USERI5
 70
     0
  9
$USERR1
 40
0.0
  9
$USERR2
 40
0.0
  9
$USERR3
 40
0.0
  9
$USERR4
 40
0.0
  9
$USERR5
 40
0.0
  9
$WORLDVIEW
 70
     1
  9
$SHADEDGE
 70
     3
  9
$SHADEDIF
 70
    70
  9
$TILEMODE
 70
     1
  9
$MAXACTVP
 70
    64
  9
$PINSBASE
 10
0.0
 20
0.0
 30
0.0
  9
$PLIMCHECK
 70
     0
  9
$PEXTMIN
 10
1.000000000000000E+20
 20
1.000000000000000E+20
 30
1.000000000000000E+20
  9
$PEXTMAX
 10
-1.000000000000000E+20
 20
-1.000000000000000E+20
 30
-1.000000000000000E+20
  9
$PLIMMIN
 10
0.0
 20
0.0
  9
$PLIMMAX
 10
420.0
 20
297.0
  9
$UNITMODE
 70
     0
  9
$VISRETAIN
 70
     1
  9
$PLINEGEN
 70
     0
  9
$PSLTSCALE
 70
     1
  9
$TREEDEPTH
 70
  3020
  9
$CMLSTYLE
  2
Standard
  9
$CMLJUST
 70
     0
  9
$CMLSCALE
 40
20.0
  9
$PROXYGRAPHICS
 70
     1
  9
$MEASUREMENT
 70
     1
  9
$CELWEIGHT
370
    -1
  9
$ENDCAPS
280
     0
  9
$JOINSTYLE
280
     0
  9
$LWDISPLAY
290
     0
  9
$INSUNITS
 70
     4
  9
$HYPERLINKBASE
  1

  9
$STYLESHEET
  1

  9
$XEDIT
290
     1
  9
$CEPSNTYPE
380
     0
  9
$PSTYLEMODE
290
     1
  9
$FINGERPRINTGUID
  2
{9B47308E-04D6-42FB-BD32-F27AC533D1CD}
  9
$VERSIONGUID
  2
{D42D84F1-5413-418E-B23A-65E0D945D998}
  9
$EXTNAMES
290
     1
  9
$PSVPSCALE
 40
0.0
  9
$OLESTARTUP
290
     0
  0
ENDSEC
  0
SECTION
  2
CLASSES
  0
CLASS
  1
ACDBDICTIONARYWDFLT
  2
AcDbDictionaryWithDefault
  3
AutoCAD 2000
 90
        0
280
     0
281
     0
  0
CLASS
  1
ACDBPLACEHOLDER
  2
AcDbPlaceHolder
  3
AutoCAD 2000
 90
        0
280
     0
281
     0
  0
CLASS
  1
LAYOUT
  2
AcDbLayout
  3
AutoCAD 2000
 90
        0
280
     0
281
     0
  0
CLASS
  1
DICTIONARYVAR
  2
AcDbDictionaryVar
  3
AutoCAD 2000
 90
        0
280
     0
281
     0
  0
CLASS
  1
DIMASSOC
  2
AcDbDimAssoc
  3
"AcDbDimAssoc|Product Desc:     AcDim ARX App For Dimension|Company:          Autodesk, Inc.|WEB Address:      www.autodesk.com"
 90
        0
280
     0
281
     0
  0
ENDSEC
  0
SECTION
  2
TABLES
  0
TABLE
  2
VPORT
  5
8
330
0
100
AcDbSymbolTable
 70
     4
  0
VPORT
  5
1FE
330
8
100
AcDbSymbolTableRecord
100
AcDbViewportTableRecord
  2
*Active
 70
     0
 10
0.0
 20
0.0
 11
1.0
 21
1.0
 12
600.709021163102
 22
728.4805607577464
 13
0.0
 23
0.0
 14
10.0
 24
10.0
 15
10.0
 25
10.0
 16
0.0
 26
0.0
 36
1.0
 17
0.0
 27
0.0
 37
0.0
 40
682.3421605546508
 41
1.697160883280757
 42
50.0
 43
0.0
 44
0.0
 50
0.0
 51
0.0
 71
     0
 72
   100
 73
     1
 74
     3
 75
     0
 76
     0
 77
     0
 78
     0
281
     0
 65
     1
110
0.0
120
0.0
130
0.0
111
1.0
121
0.0
131
0.0
112
0.0
122
1.0
132
0.0
 79
     1
146
0.0
  0
ENDTAB
  0
TABLE
  2
LTYPE
  5
5
330
0
100
AcDbSymbolTable
 70
     3
  0
LTYPE
  5
14
330
5
100
AcDbSymbolTableRecord
100
AcDbLinetypeTableRecord
  2
ByBlock
 70
     0
  3

 72
    65
 73
     0
 40
0.0
  0
LTYPE
  5
15
330
5
100
AcDbSymbolTableRecord
100
AcDbLinetypeTableRecord
  2
ByLayer
 70
     0
  3

 72
    65
 73
     0
 40
0.0
  0
LTYPE
  5
16
330
5
100
AcDbSymbolTableRecord
100
AcDbLinetypeTableRecord
  2
Continuous
 70
     0
  3
Solid line
 72
    65
 73
     0
 40
0.0
  0
LTYPE
  5
121
330
5
100
AcDbSymbolTableRecord
100
AcDbLinetypeTableRecord
  2
ACAD_ISO02W100
 70
     0
  3
ISO \U+00E8árkovaná __ __ __ __ __ __ __ __ __ __ __ 
 72
    65
 73
     2
 40
15.0
 49
12.0
 74
     0
 49
-3.0
 74
     0
  0
LTYPE
  5
122
330
5
100
AcDbSymbolTableRecord
100
AcDbLinetypeTableRecord
  2
ACAD_ISO03W100
 70
     0
  3
ISO p\U+00F8erušovaná __    __    __    __    __    _
 72
    65
 73
     2
 40
30.0
 49
12.0
 74
     0
 49
-18.0
 74
     0
  0
ENDTAB
  0
TABLE
  2
LAYER
  5
2
330
0
100
AcDbSymbolTable
 70
     5
  0
LAYER
  5
10
330
2
100
AcDbSymbolTableRecord
100
AcDbLayerTableRecord
  2
0
 70
     0
 62
    90
  6
Continuous
370
    -3
390
F
  0
LAYER
  5
2B
330
2
100
AcDbSymbolTableRecord
100
AcDbLayerTableRecord
  2
koty
 70
     0
 62
    41
  6
Continuous
370
    -3
390
F
  0
LAYER
  5
2C
330
2
100
AcDbSymbolTableRecord
100
AcDbLayerTableRecord
  2
popis
 70
     0
 62
   210
  6
Continuous
370
    -3
390
F
  0
LAYER
  5
4E
330
2
100
AcDbSymbolTableRecord
100
AcDbLayerTableRecord
  2
Defpoints
 70
     0
 62
     7
  6
Continuous
290
     0
370
    -3
390
F
  0
LAYER
  5
C4
330
2
100
AcDbSymbolTableRecord
100
AcDbLayerTableRecord
  2
srafy
 70
     0
 62
     7
  6
Continuous
370
    -3
390
F
  0
ENDTAB
  0
TABLE
  2
STYLE
  5
3
330
0
100
AcDbSymbolTable
 70
     2
  0
STYLE
  5
11
330
3
100
AcDbSymbolTableRecord
100
AcDbTextStyleTableRecord
  2
Standard
 70
     0
 40
0.0
 41
1.0
 50
0.0
 71
     0
 42
20.0
  3
txt
  4

  0
STYLE
  5
120
330
3
100
AcDbSymbolTableRecord
100
AcDbTextStyleTableRecord
  2

 70
     1
 40
0.0
 41
1.0
 50
0.0
 71
     0
 42
2.5
  3
ltypeshp.shx
  4

  0
ENDTAB
  0
TABLE
  2
VIEW
  5
6
330
0
100
AcDbSymbolTable
 70
     0
  0
ENDTAB
  0
TABLE
  2
UCS
  5
7
330
0
100
AcDbSymbolTable
 70
     0
  0
ENDTAB
  0
TABLE
  2
APPID
  5
9
330
0
100
AcDbSymbolTable
 70
     1
  0
APPID
  5
12
330
9
100
AcDbSymbolTableRecord
100
AcDbRegAppTableRecord
  2
ACAD
 70
     0
  0
ENDTAB
  0
TABLE
  2
DIMSTYLE
  5
A
330
0
100
AcDbSymbolTable
 70
     1
100
AcDbDimStyleTable
 71
     1
340
27
  0
DIMSTYLE
105
27
102
{ACAD_REACTORS
330
19C
330
1B4
330
1CC
330
1E4
102
}
330
A
100
AcDbSymbolTableRecord
100
AcDbDimStyleTableRecord
  2
ISO-25
 70
     0
 40
10.0
 41
2.0
 42
0.625
 43
3.75
 44
1.25
 73
     0
 74
     0
 77
     1
 78
     8
140
2.0
141
2.5
143
0.03937007874016
147
0.625
171
     3
172
     1
271
     2
272
     2
274
     3
278
    44
283
     0
284
     8
340
11
  0
ENDTAB
  0
TABLE
  2
BLOCK_RECORD
  5
1
330
0
100
AcDbSymbolTable
 70
     5
  0
BLOCK_RECORD
  5
1F
330
1
100
AcDbSymbolTableRecord
100
AcDbBlockTableRecord
  2
*Model_Space
340
22
  0
BLOCK_RECORD
  5
1B
330
1
100
AcDbSymbolTableRecord
100
AcDbBlockTableRecord
  2
*Paper_Space
340
1E
  0
BLOCK_RECORD
  5
23
330
1
100
AcDbSymbolTableRecord
100
AcDbBlockTableRecord
  2
*Paper_Space0
340
26
  0
BLOCK_RECORD
  5
19D
330
1
100
AcDbSymbolTableRecord
100
AcDbBlockTableRecord
  2
*D1
340
0
  0
BLOCK_RECORD
  5
1B5
330
1
100
AcDbSymbolTableRecord
100
AcDbBlockTableRecord
  2
*D2
340
0
  0
BLOCK_RECORD
  5
1CD
330
1
100
AcDbSymbolTableRecord
100
AcDbBlockTableRecord
  2
*D3
340
0
  0
BLOCK_RECORD
  5
1E5
330
1
100
AcDbSymbolTableRecord
100
AcDbBlockTableRecord
  2
*D4
340
0
  0
ENDTAB
  0
ENDSEC
  0
SECTION
  2
BLOCKS
  0
BLOCK
  5
20
330
1F
100
AcDbEntity
  8
0
100
AcDbBlockBegin
  2
*Model_Space
 70
     0
 10
0.0
 20
0.0
 30
0.0
  3
*Model_Space
  1

  0
ENDBLK
  5
21
330
1F
100
AcDbEntity
  8
0
100
AcDbBlockEnd
  0
BLOCK
  5
1C
330
1B
100
AcDbEntity
 67
     1
  8
0
100
AcDbBlockBegin
  2
*Paper_Space
 70
     0
 10
0.0
 20
0.0
 30
0.0
  3
*Paper_Space
  1

  0
ENDBLK
  5
1D
330
1B
100
AcDbEntity
 67
     1
  8
0
100
AcDbBlockEnd
  0
BLOCK
  5
24
330
23
100
AcDbEntity
  8
0
100
AcDbBlockBegin
  2
*Paper_Space0
 70
     0
 10
0.0
 20
0.0
 30
0.0
  3
*Paper_Space0
  1

  0
ENDBLK
  5
25
330
23
100
AcDbEntity
  8
0
100
AcDbBlockEnd
  0
BLOCK
  5
1A7
330
19D
100
AcDbEntity
  8
0
100
AcDbBlockBegin
  2
*D1
 70
     1
 10
0.0
 20
0.0
 30
0.0
  3
*D1
  1

  0
LINE
  5
1AA
330
19D
100
AcDbEntity
  8
koty
 62
     0
370
    -2
100
AcDbLine
 10
513.209021163102
 20
608.6987076116265
 30
0.0
 11
513.209021163102
 21
483.9981254489421
 31
0.0
  0
LINE
  5
1AB
330
19D
100
AcDbEntity
  8
koty
 62
     0
370
    -2
100
AcDbLine
 10
688.209021163102
 20
608.6987076116265
 30
0.0
 11
688.209021163102
 21
483.9981254489421
 31
0.0
  0
LINE
  5
1AC
330
19D
100
AcDbEntity
  8
koty
 62
     0
370
    -2
100
AcDbLine
 10
533.2090211631021
 20
496.4981254489421
 30
0.0
 11
668.209021163102
 21
496.4981254489421
 31
0.0
  0
SOLID
  5
1AD
330
19D
100
AcDbEntity
  8
koty
 62
     0
100
AcDbTrace
 10
533.2090211631021
 20
499.8314587822754
 30
0.0
 11
533.2090211631021
 21
493.1647921156088
 31
0.0
 12
513.209021163102
 22
496.4981254489421
 32
0.0
 13
513.209021163102
 23
496.4981254489421
 33
0.0
  0
SOLID
  5
1AE
330
19D
100
AcDbEntity
  8
koty
 62
     0
100
AcDbTrace
 10
668.209021163102
 20
499.8314587822754
 30
0.0
 11
668.209021163102
 21
493.1647921156088
 31
0.0
 12
688.209021163102
 22
496.4981254489421
 32
0.0
 13
688.209021163102
 23
496.4981254489421
 33
0.0
  0
MTEXT
  5
1AF
330
19D
100
AcDbEntity
  8
koty
 62
     0
100
AcDbMText
 10
600.709021163102
 20
512.7481254489421
 30
0.0
 40
20.0
 41
0.0
 71
     5
 72
     1
  1
175
 73
     1
 44
1.0
  0
POINT
  5
1B0
330
19D
100
AcDbEntity
  8
Defpoints
 62
     0
100
AcDbPoint
 10
513.209021163102
 20
614.9487076116265
 30
0.0
  0
POINT
  5
1B1
330
19D
100
AcDbEntity
  8
Defpoints
 62
     0
100
AcDbPoint
 10
688.209021163102
 20
614.9487076116265
 30
0.0
  0
POINT
  5
1B2
330
19D
100
AcDbEntity
  8
Defpoints
 62
     0
100
AcDbPoint
 10
688.209021163102
 20
496.4981254489421
 30
0.0
  0
ENDBLK
  5
1A8
330
19D
100
AcDbEntity
  8
0
100
AcDbBlockEnd
  0
BLOCK
  5
1BF
330
1B5
100
AcDbEntity
  8
0
100
AcDbBlockBegin
  2
*D2
 70
     1
 10
0.0
 20
0.0
 30
0.0
  3
*D2
  1

  0
LINE
  5
1C2
330
1B5
100
AcDbEntity
  8
koty
 62
     0
370
    -2
100
AcDbLine
 10
200.709021163102
 20
648.6987076116265
 30
0.0
 11
200.709021163102
 21
390.5029695313787
 31
0.0
  0
LINE
  5
1C3
330
1B5
100
AcDbEntity
  8
koty
 62
     0
370
    -2
100
AcDbLine
 10
1000.709021163102
 20
648.6987076116265
 30
0.0
 11
1000.709021163102
 21
390.5029695313787
 31
0.0
  0
LINE
  5
1C4
330
1B5
100
AcDbEntity
  8
koty
 62
     0
370
    -2
100
AcDbLine
 10
220.709021163102
 20
403.0029695313787
 30
0.0
 11
980.709021163102
 21
403.0029695313787
 31
0.0
  0
SOLID
  5
1C5
330
1B5
100
AcDbEntity
  8
koty
 62
     0
100
AcDbTrace
 10
220.709021163102
 20
406.336302864712
 30
0.0
 11
220.709021163102
 21
399.6696361980454
 31
0.0
 12
200.709021163102
 22
403.0029695313787
 32
0.0
 13
200.709021163102
 23
403.0029695313787
 33
0.0
  0
SOLID
  5
1C6
330
1B5
100
AcDbEntity
  8
koty
 62
     0
100
AcDbTrace
 10
980.709021163102
 20
406.336302864712
 30
0.0
 11
980.709021163102
 21
399.6696361980454
 31
0.0
 12
1000.709021163102
 22
403.0029695313787
 32
0.0
 13
1000.709021163102
 23
403.0029695313787
 33
0.0
  0
MTEXT
  5
1C7
330
1B5
100
AcDbEntity
  8
koty
 62
     0
100
AcDbMText
 10
600.709021163102
 20
419.2529695313787
 30
0.0
 40
20.0
 41
0.0
 71
     5
 72
     1
  1
800
 73
     1
 44
1.0
  0
POINT
  5
1C8
330
1B5
100
AcDbEntity
  8
Defpoints
 62
     0
100
AcDbPoint
 10
200.709021163102
 20
654.9487076116265
 30
0.0
  0
POINT
  5
1C9
330
1B5
100
AcDbEntity
  8
Defpoints
 62
     0
100
AcDbPoint
 10
1000.709021163102
 20
654.9487076116265
 30
0.0
  0
POINT
  5
1CA
330
1B5
100
AcDbEntity
  8
Defpoints
 62
     0
100
AcDbPoint
 10
1000.709021163102
 20
403.0029695313787
 30
0.0
  0
ENDBLK
  5
1C0
330
1B5
100
AcDbEntity
  8
0
100
AcDbBlockEnd
  0
BLOCK
  5
1D7
330
1CD
100
AcDbEntity
  8
0
100
AcDbBlockBegin
  2
*D3
 70
     1
 10
0.0
 20
0.0
 30
0.0
  3
*D3
  1

  0
LINE
  5
1DA
330
1CD
100
AcDbEntity
  8
koty
 62
     0
370
    -2
100
AcDbLine
 10
650.7819536979764
 20
574.9487076116265
 30
0.0
 11
826.5556273815763
 21
574.9487076116264
 31
0.0
  0
LINE
  5
1DB
330
1CD
100
AcDbEntity
  8
koty
 62
     0
370
    -2
100
AcDbLine
 10
650.7819536979764
 20
969.9487076116266
 30
0.0
 11
826.5556273815764
 21
969.9487076116264
 31
0.0
  0
LINE
  5
1DC
330
1CD
100
AcDbEntity
  8
koty
 62
     0
370
    -2
100
AcDbLine
 10
814.0556273815763
 20
594.9487076116264
 30
0.0
 11
814.0556273815764
 21
949.9487076116265
 31
0.0
  0
SOLID
  5
1DD
330
1CD
100
AcDbEntity
  8
koty
 62
     0
100
AcDbTrace
 10
810.7222940482429
 20
594.9487076116264
 30
0.0
 11
817.3889607149096
 21
594.9487076116264
 31
0.0
 12
814.0556273815763
 22
574.9487076116264
 32
0.0
 13
814.0556273815763
 23
574.9487076116264
 33
0.0
  0
SOLID
  5
1DE
330
1CD
100
AcDbEntity
  8
koty
 62
     0
100
AcDbTrace
 10
810.7222940482429
 20
949.9487076116265
 30
0.0
 11
817.3889607149098
 21
949.9487076116265
 31
0.0
 12
814.0556273815764
 22
969.9487076116264
 32
0.0
 13
814.0556273815764
 23
969.9487076116264
 33
0.0
  0
MTEXT
  5
1DF
330
1CD
100
AcDbEntity
  8
koty
 62
     0
100
AcDbMText
 10
797.8056273815761
 20
772.4487076116266
 30
0.0
 40
20.0
 41
0.0
 71
     5
 72
     1
  1
395
 11
0.0000000000000001
 21
1.0
 31
0.0
 73
     1
 44
1.0
  0
POINT
  5
1E0
330
1CD
100
AcDbEntity
  8
Defpoints
 62
     0
100
AcDbPoint
 10
644.5319536979764
 20
574.9487076116265
 30
0.0
  0
POINT
  5
1E1
330
1CD
100
AcDbEntity
  8
Defpoints
 62
     0
100
AcDbPoint
 10
644.5319536979764
 20
969.9487076116266
 30
0.0
  0
POINT
  5
1E2
330
1CD
100
AcDbEntity
  8
Defpoints
 62
     0
100
AcDbPoint
 10
814.0556273815764
 20
969.9487076116264
 30
0.0
  0
ENDBLK
  5
1D8
330
1CD
100
AcDbEntity
  8
0
100
AcDbBlockEnd
  0
BLOCK
  5
1EF
330
1E5
100
AcDbEntity
  8
0
100
AcDbBlockBegin
  2
*D4
 70
     1
 10
0.0
 20
0.0
 30
0.0
  3
*D4
  1

  0
LINE
  5
1F2
330
1E5
100
AcDbEntity
  8
koty
 62
     0
370
    -2
100
AcDbLine
 10
610.9590211631021
 20
759.9487076116266
 30
0.0
 11
726.8499514301091
 21
759.9487076116266
 31
0.0
  0
LINE
  5
1F3
330
1E5
100
AcDbEntity
  8
koty
 62
     0
370
    -2
100
AcDbLine
 10
650.7819536979764
 20
969.9487076116266
 30
0.0
 11
726.8499514301092
 21
969.9487076116266
 31
0.0
  0
LINE
  5
1F4
330
1E5
100
AcDbEntity
  8
koty
 62
     0
370
    -2
100
AcDbLine
 10
714.3499514301092
 20
779.9487076116265
 30
0.0
 11
714.3499514301092
 21
949.9487076116265
 31
0.0
  0
SOLID
  5
1F5
330
1E5
100
AcDbEntity
  8
koty
 62
     0
100
AcDbTrace
 10
711.0166180967759
 20
779.9487076116265
 30
0.0
 11
717.6832847634426
 21
779.9487076116265
 31
0.0
 12
714.3499514301091
 22
759.9487076116266
 32
0.0
 13
714.3499514301091
 23
759.9487076116266
 33
0.0
  0
SOLID
  5
1F6
330
1E5
100
AcDbEntity
  8
koty
 62
     0
100
AcDbTrace
 10
711.0166180967759
 20
949.9487076116265
 30
0.0
 11
717.6832847634426
 21
949.9487076116265
 31
0.0
 12
714.3499514301092
 22
969.9487076116266
 32
0.0
 13
714.3499514301092
 23
969.9487076116266
 33
0.0
  0
MTEXT
  5
1F7
330
1E5
100
AcDbEntity
  8
koty
 62
     0
100
AcDbMText
 10
698.099951430109
 20
864.9487076116267
 30
0.0
 40
20.0
 41
0.0
 71
     5
 72
     1
  1
210
 11
0.0000000000000001
 21
1.0
 31
0.0
 73
     1
 44
1.0
  0
POINT
  5
1F8
330
1E5
100
AcDbEntity
  8
Defpoints
 62
     0
100
AcDbPoint
 10
604.7090211631021
 20
759.9487076116266
 30
0.0
  0
POINT
  5
1F9
330
1E5
100
AcDbEntity
  8
Defpoints
 62
     0
100
AcDbPoint
 10
644.5319536979764
 20
969.9487076116266
 30
0.0
  0
POINT
  5
1FA
330
1E5
100
AcDbEntity
  8
Defpoints
 62
     0
100
AcDbPoint
 10
714.3499514301092
 20
969.9487076116266
 30
0.0
  0
ENDBLK
  5
1F0
330
1E5
100
AcDbEntity
  8
0
100
AcDbBlockEnd
  0
ENDSEC
  0
SECTION
  2
ENTITIES
  0
LINE
  5
16C
102
{ACAD_REACTORS
330
1CB
102
}
330
1F
100
AcDbEntity
  8
0
100
AcDbLine
 10
200.709021163102
 20
654.9487076116265
 30
0.0
 11
1000.709021163102
 21
654.9487076116265
 31
0.0
  0
LINE
  5
16E
330
1F
100
AcDbEntity
  8
0
100
AcDbLine
 10
600.709021163102
 20
654.9487076116265
 30
0.0
 11
513.209021163102
 21
654.9487076116265
 31
0.0
  0
LINE
  5
171
330
1F
100
AcDbEntity
  8
0
100
AcDbLine
 10
556.8860886282277
 20
574.9487076116265
 30
0.0
 11
600.709021163102
 21
574.9487076116265
 31
0.0
  0
LINE
  5
172
330
1F
100
AcDbEntity
  8
0
100
AcDbLine
 10
513.209021163102
 20
654.9487076116265
 30
0.0
 11
513.209021163102
 21
614.9487076116265
 31
0.0
  0
LINE
  5
173
102
{ACAD_REACTORS
330
1B3
102
}
330
1F
100
AcDbEntity
  8
0
100
AcDbLine
 10
513.209021163102
 20
614.9487076116265
 30
0.0
 11
600.7090211631021
 21
614.9487076116265
 31
0.0
  0
LINE
  5
175
330
1F
100
AcDbEntity
  8
0
100
AcDbLine
 10
600.709021163102
 20
969.9487076116266
 30
0.0
 11
556.8860886282277
 21
969.9487076116266
 31
0.0
  0
LINE
  5
176
330
1F
100
AcDbEntity
  8
0
100
AcDbLine
 10
536.3605633065653
 20
614.9487076116265
 30
0.0
 11
556.8860886282277
 21
574.9487076116265
 31
0.0
  0
LINE
  5
177
102
{ACAD_REACTORS
330
1B3
102
}
330
1F
100
AcDbEntity
  8
0
100
AcDbLine
 10
688.209021163102
 20
654.9487076116265
 30
0.0
 11
688.209021163102
 21
614.9487076116265
 31
0.0
  0
LINE
  5
178
330
1F
100
AcDbEntity
  8
0
100
AcDbLine
 10
688.209021163102
 20
614.9487076116265
 30
0.0
 11
600.709021163102
 21
614.9487076116265
 31
0.0
  0
LINE
  5
179
102
{ACAD_REACTORS
330
1E3
102
}
330
1F
100
AcDbEntity
  8
0
100
AcDbLine
 10
665.0574790196388
 20
614.9487076116265
 30
0.0
 11
644.5319536979764
 21
574.9487076116265
 31
0.0
  0
LINE
  5
17A
330
1F
100
AcDbEntity
  8
0
100
AcDbLine
 10
644.5319536979764
 20
574.9487076116265
 30
0.0
 11
600.709021163102
 21
574.9487076116265
 31
0.0
  0
LINE
  5
17E
330
1F
100
AcDbEntity
  8
0
100
AcDbLine
 10
200.709021163102
 20
664.9487076116265
 30
0.0
 11
1000.709021163102
 21
664.9487076116265
 31
0.0
  0
LINE
  5
17F
330
1F
100
AcDbEntity
  8
0
100
AcDbLine
 10
200.709021163102
 20
654.9487076116265
 30
0.0
 11
200.709021163102
 21
664.9487076116265
 31
0.0
  0
LINE
  5
181
330
1F
100
AcDbEntity
  8
0
100
AcDbLine
 10
1000.709021163102
 20
654.9487076116265
 30
0.0
 11
1000.709021163102
 21
664.9487076116265
 31
0.0
  0
LINE
  5
182
330
1F
100
AcDbEntity
  8
0
100
AcDbLine
 10
596.709021163102
 20
859.9487076116265
 30
0.0
 11
596.709021163102
 21
759.9487076116266
 31
0.0
  0
LINE
  5
185
330
1F
100
AcDbEntity
  8
0
100
AcDbLine
 10
600.709021163102
 20
859.9487076116265
 30
0.0
 11
591.695562088313
 21
859.9487076116265
 31
0.0
  0
LINE
  5
186
330
1F
100
AcDbEntity
  8
0
100
AcDbLine
 10
556.8860886282277
 20
966.9487076116265
 30
0.0
 11
556.8860886282277
 21
969.9487076116266
 31
0.0
  0
LINE
  5
187
330
1F
100
AcDbEntity
  8
0
100
AcDbLine
 10
559.8881048041904
 20
964.9487076116265
 30
0.0
 11
558.8860886282276
 21
964.9487076116265
 31
0.0
  0
LINE
  5
188
330
1F
100
AcDbEntity
  8
0
100
AcDbLine
 10
564.7641856818416
 20
961.0549784982563
 30
0.0
 11
586.8194812106618
 21
863.8424367249969
 31
0.0
  0
ARC
  5
189
330
1F
100
AcDbEntity
  8
0
100
AcDbCircle
 10
559.8881048041903
 20
959.9487076116265
 30
0.0
 40
5.0
100
AcDbArc
 50
12.78270753839866
 51
89.99999999999813
  0
ARC
  5
18A
330
1F
100
AcDbEntity
  8
0
100
AcDbCircle
 10
591.695562088313
 20
864.9487076116265
 30
0.0
 40
5.0
100
AcDbArc
 50
192.7827075383986
 51
270.0
  0
ARC
  5
18B
330
1F
100
AcDbEntity
  8
0
100
AcDbCircle
 10
558.8860886282277
 20
966.9487076116265
 30
0.0
 40
2.0
100
AcDbArc
 50
180.0
 51
269.9999999999978
  0
LINE
  5
18C
330
1F
100
AcDbEntity
  8
0
100
AcDbLine
 10
600.709021163102
 20
969.9487076116266
 30
0.0
 11
644.5319536979764
 21
969.9487076116266
 31
0.0
  0
LINE
  5
18D
102
{ACAD_REACTORS
330
1E3
330
1FB
102
}
330
1F
100
AcDbEntity
  8
0
100
AcDbLine
 10
644.5319536979764
 20
966.9487076116265
 30
0.0
 11
644.5319536979764
 21
969.9487076116266
 31
0.0
  0
ARC
  5
18E
330
1F
100
AcDbEntity
  8
0
100
AcDbCircle
 10
642.5319536979763
 20
966.9487076116265
 30
0.0
 40
2.0
100
AcDbArc
 50
270.0000000000021
 51
0.000000000000007
  0
ARC
  5
18F
330
1F
100
AcDbEntity
  8
0
100
AcDbCircle
 10
641.5299375220138
 20
959.9487076116265
 30
0.0
 40
5.0
100
AcDbArc
 50
90.00000000000186
 51
167.2172924616013
  0
LINE
  5
190
330
1F
100
AcDbEntity
  8
0
100
AcDbLine
 10
641.5299375220136
 20
964.9487076116265
 30
0.0
 11
642.5319536979765
 21
964.9487076116265
 31
0.0
  0
LINE
  5
191
330
1F
100
AcDbEntity
  8
0
100
AcDbLine
 10
636.6538566443625
 20
961.0549784982563
 30
0.0
 11
614.5985611155423
 21
863.8424367249969
 31
0.0
  0
ARC
  5
192
330
1F
100
AcDbEntity
  8
0
100
AcDbCircle
 10
609.722480237891
 20
864.9487076116265
 30
0.0
 40
5.0
100
AcDbArc
 50
270.0
 51
347.2172924616014
  0
LINE
  5
193
330
1F
100
AcDbEntity
  8
0
100
AcDbLine
 10
600.709021163102
 20
859.9487076116265
 30
0.0
 11
609.722480237891
 21
859.9487076116265
 31
0.0
  0
LINE
  5
194
102
{ACAD_REACTORS
330
1FB
102
}
330
1F
100
AcDbEntity
  8
0
100
AcDbLine
 10
604.7090211631021
 20
859.9487076116265
 30
0.0
 11
604.7090211631021
 21
759.9487076116266
 31
0.0
  0
LINE
  5
195
330
1F
100
AcDbEntity
  8
0
100
AcDbLine
 10
604.7090211631021
 20
759.9487076116266
 30
0.0
 11
596.709021163102
 21
759.9487076116266
 31
0.0
  0
LINE
  5
196
330
1F
100
AcDbEntity
  8
0
100
AcDbLine
 10
600.709021163102
 20
759.9487076116266
 30
0.0
 11
583.1315083949447
 21
759.9487076116266
 31
0.0
  0
LINE
  5
197
330
1F
100
AcDbEntity
  8
0
100
AcDbLine
 10
578.1505735019785
 20
755.3849272719268
 30
0.0
 11
570.2303621627832
 21
664.9487076116265
 31
0.0
  0
ARC
  5
198
330
1F
100
AcDbEntity
  8
0
100
AcDbCircle
 10
583.1315083949447
 20
754.9487076116265
 30
0.0
 40
5.0
100
AcDbArc
 50
90.0
 51
174.9949278037886
  0
LINE
  5
199
330
1F
100
AcDbEntity
  8
0
100
AcDbLine
 10
600.709021163102
 20
759.9487076116266
 30
0.0
 11
618.2865339312594
 21
759.9487076116266
 31
0.0
  0
ARC
  5
19A
330
1F
100
AcDbEntity
  8
0
100
AcDbCircle
 10
618.2865339312594
 20
754.9487076116265
 30
0.0
 40
5.0
100
AcDbArc
 50
5.005072196211376
 51
90.0
  0
LINE
  5
19B
330
1F
100
AcDbEntity
  8
0
100
AcDbLine
 10
623.2674688242256
 20
755.3849272719268
 30
0.0
 11
631.1876801634209
 21
664.9487076116265
 31
0.0
  0
DIMENSION
  5
19C
102
{ACAD_XDICTIONARY
360
1A9
102
}
102
{ACAD_REACTORS
330
1B3
102
}
330
1F
100
AcDbEntity
  8
koty
100
AcDbDimension
  2
*D1
 10
688.209021163102
 20
496.4981254489421
 30
0.0
 11
600.709021163102
 21
512.7481254489421
 31
0.0
 70
    32
 71
     5
 42
175.0
  3
ISO-25
100
AcDbAlignedDimension
 13
513.209021163102
 23
614.9487076116265
 33
0.0
 14
688.209021163102
 24
614.9487076116265
 34
0.0
100
AcDbRotatedDimension
  0
DIMENSION
  5
1B4
102
{ACAD_XDICTIONARY
360
1C1
102
}
102
{ACAD_REACTORS
330
1CB
102
}
330
1F
100
AcDbEntity
  8
koty
100
AcDbDimension
  2
*D2
 10
1000.709021163102
 20
403.0029695313787
 30
0.0
 11
600.709021163102
 21
419.2529695313787
 31
0.0
 70
    32
 71
     5
 42
800.0
  3
ISO-25
100
AcDbAlignedDimension
 13
200.709021163102
 23
654.9487076116265
 33
0.0
 14
1000.709021163102
 24
654.9487076116265
 34
0.0
100
AcDbRotatedDimension
  0
DIMENSION
  5
1CC
102
{ACAD_XDICTIONARY
360
1D9
102
}
102
{ACAD_REACTORS
330
1E3
102
}
330
1F
100
AcDbEntity
  8
koty
100
AcDbDimension
  2
*D3
 10
814.0556273815764
 20
969.9487076116264
 30
0.0
 11
797.8056273815761
 21
772.4487076116266
 31
0.0
 70
    32
 71
     5
 42
395.0
  3
ISO-25
100
AcDbAlignedDimension
 13
644.5319536979764
 23
574.9487076116265
 33
0.0
 14
644.5319536979764
 24
969.9487076116266
 34
0.0
 50
90.0
100
AcDbRotatedDimension
  0
DIMENSION
  5
1E4
102
{ACAD_XDICTIONARY
360
1F1
102
}
102
{ACAD_REACTORS
330
1FB
102
}
330
1F
100
AcDbEntity
  8
koty
100
AcDbDimension
  2
*D4
 10
714.3499514301092
 20
969.9487076116266
 30
0.0
 11
698.099951430109
 21
864.9487076116267
 31
0.0
 70
    32
 71
     5
 42
210.0
  3
ISO-25
100
AcDbAlignedDimension
 13
604.7090211631021
 23
759.9487076116266
 33
0.0
 14
644.5319536979764
 24
969.9487076116266
 34
0.0
 50
90.0
100
AcDbRotatedDimension
  0
TEXT
  5
1FC
330
1F
100
AcDbEntity
  8
popis
100
AcDbText
 10
414.3227208749086
 20
1046.458151984114
 30
0.0
 40
20.0
  1
HTB-75N - stropní ventilátor
100
AcDbText
  0
ENDSEC
  0
SECTION
  2
OBJECTS
  0
DICTIONARY
  5
C
330
0
100
AcDbDictionary
281
     1
  3
ACAD_GROUP
350
D
  3
ACAD_LAYOUT
350
1A
  3
ACAD_MLINESTYLE
350
17
  3
ACAD_PLOTSETTINGS
350
19
  3
ACAD_PLOTSTYLENAME
350
E
  3
AcDbVariableDictionary
350
2E
  0
DICTIONARY
  5
1A9
330
19C
100
AcDbDictionary
280
     1
281
     1
  3
ACAD_DIMASSOC
360
1B3
  0
DICTIONARY
  5
1C1
330
1B4
100
AcDbDictionary
280
     1
281
     1
  3
ACAD_DIMASSOC
360
1CB
  0
DICTIONARY
  5
1D9
330
1CC
100
AcDbDictionary
280
     1
281
     1
  3
ACAD_DIMASSOC
360
1E3
  0
DICTIONARY
  5
1F1
330
1E4
100
AcDbDictionary
280
     1
281
     1
  3
ACAD_DIMASSOC
360
1FB
  0
DICTIONARY
  5
D
102
{ACAD_REACTORS
330
C
102
}
330
C
100
AcDbDictionary
281
     1
  0
DICTIONARY
  5
1A
102
{ACAD_REACTORS
330
C
102
}
330
C
100
AcDbDictionary
281
     1
  3
Model
350
22
  3
Rozvržení1
350
1E
  3
Rozvržení2
350
26
  0
DICTIONARY
  5
17
102
{ACAD_REACTORS
330
C
102
}
330
C
100
AcDbDictionary
281
     1
  3
Standard
350
18
  0
DICTIONARY
  5
19
102
{ACAD_REACTORS
330
C
102
}
330
C
100
AcDbDictionary
281
     1
  0
ACDBDICTIONARYWDFLT
  5
E
102
{ACAD_REACTORS
330
C
102
}
330
C
100
AcDbDictionary
281
     1
  3
Normal
350
F
100
AcDbDictionaryWithDefault
340
F
  0
DICTIONARY
  5
2E
102
{ACAD_REACTORS
330
C
102
}
330
C
100
AcDbDictionary
281
     1
  3
DIMASSOC
350
30
  3
HIDETEXT
350
2F
  0
DIMASSOC
  5
1B3
102
{ACAD_REACTORS
330
1A9
102
}
330
1A9
100
AcDbDimAssoc
330
19C
 90
        3
 70
     0
 71
     0
  1
AcDbOsnapPointRef
 72
    13
331
173
 73
     2
 91
        0
 40
0.0
 10
513.209021163102
 20
614.9487076116265
 30
0.0
 75
     0
  1
AcDbOsnapPointRef
 72
     1
331
177
 73
     2
 91
        0
 40
1.0
 10
688.209021163102
 20
614.9487076116265
 30
0.0
 75
     0
  0
DIMASSOC
  5
1CB
102
{ACAD_REACTORS
330
1C1
102
}
330
1C1
100
AcDbDimAssoc
330
1B4
 90
        3
 70
     0
 71
     0
  1
AcDbOsnapPointRef
 72
    13
331
16C
 73
     2
 91
        0
 40
0.0
 10
200.709021163102
 20
654.9487076116265
 30
0.0
 75
     0
  1
AcDbOsnapPointRef
 72
     1
331
16C
 73
     2
 91
        0
 40
1.0
 10
1000.709021163102
 20
654.9487076116265
 30
0.0
 75
     0
  0
DIMASSOC
  5
1E3
102
{ACAD_REACTORS
330
1D9
102
}
330
1D9
100
AcDbDimAssoc
330
1CC
 90
        3
 70
     0
 71
     0
  1
AcDbOsnapPointRef
 72
     1
331
179
 73
     2
 91
        0
 40
1.0
 10
644.5319536979764
 20
574.9487076116265
 30
0.0
 75
     0
  1
AcDbOsnapPointRef
 72
     1
331
18D
 73
     2
 91
        0
 40
1.0
 10
644.5319536979764
 20
969.9487076116266
 30
0.0
 75
     0
  0
DIMASSOC
  5
1FB
102
{ACAD_REACTORS
330
1F1
102
}
330
1F1
100
AcDbDimAssoc
330
1E4
 90
        3
 70
     0
 71
     0
  1
AcDbOsnapPointRef
 72
     1
331
194
 73
     2
 91
        0
 40
1.0
 10
604.7090211631021
 20
759.9487076116266
 30
0.0
 75
     0
  1
AcDbOsnapPointRef
 72
     1
331
18D
 73
     2
 91
        0
 40
1.0
 10
644.5319536979764
 20
969.9487076116266
 30
0.0
 75
     0
  0
LAYOUT
  5
22
102
{ACAD_REACTORS
330
1A
102
}
330
1A
100
AcDbPlotSettings
  1

  2
D:\AutoCAD 2002Cz\plotters\PublishToWeb DWF.pc3
  4

  6

 40
0.0
 41
0.0
 42
0.0
 43
0.0
 44
0.0
 45
0.0
 46
0.0
 47
0.0
 48
0.0
 49
0.0
140
0.0
141
0.0
142
1.0
143
1.0
 70
  1712
 72
     0
 73
     0
 74
     0
  7

 75
     0
147
1.0
148
0.0
149
0.0
100
AcDbLayout
  1
Model
 70
     1
 71
     0
 10
0.0
 20
0.0
 11
12.0
 21
9.0
 12
0.0
 22
0.0
 32
0.0
 14
0.0
 24
0.0
 34
0.0
 15
0.0
 25
0.0
 35
0.0
146
0.0
 13
0.0
 23
0.0
 33
0.0
 16
1.0
 26
0.0
 36
0.0
 17
0.0
 27
1.0
 37
0.0
 76
     0
330
1F
  0
LAYOUT
  5
1E
102
{ACAD_REACTORS
330
1A
102
}
330
1A
100
AcDbPlotSettings
  1

  2
D:\AutoCAD 2002Cz\plotters\PublishToWeb DWF.pc3
  4

  6

 40
0.0
 41
0.0
 42
0.0
 43
0.0
 44
0.0
 45
0.0
 46
0.0
 47
0.0
 48
0.0
 49
0.0
140
0.0
141
0.0
142
1.0
143
1.0
 70
   688
 72
     0
 73
     0
 74
     5
  7

 75
    16
147
1.0
148
0.0
149
0.0
100
AcDbLayout
  1
Rozvržení1
 70
     1
 71
     1
 10
0.0
 20
0.0
 11
420.0
 21
297.0
 12
0.0
 22
0.0
 32
0.0
 14
1.000000000000000E+20
 24
1.000000000000000E+20
 34
1.000000000000000E+20
 15
-1.000000000000000E+20
 25
-1.000000000000000E+20
 35
-1.000000000000000E+20
146
0.0
 13
0.0
 23
0.0
 33
0.0
 16
1.0
 26
0.0
 36
0.0
 17
0.0
 27
1.0
 37
0.0
 76
     0
330
1B
  0
LAYOUT
  5
26
102
{ACAD_REACTORS
330
1A
102
}
330
1A
100
AcDbPlotSettings
  1

  2
D:\AutoCAD 2002Cz\plotters\PublishToWeb DWF.pc3
  4

  6

 40
0.0
 41
0.0
 42
0.0
 43
0.0
 44
0.0
 45
0.0
 46
0.0
 47
0.0
 48
0.0
 49
0.0
140
0.0
141
0.0
142
1.0
143
1.0
 70
   688
 72
     0
 73
     0
 74
     5
  7

 75
    16
147
1.0
148
0.0
149
0.0
100
AcDbLayout
  1
Rozvržení2
 70
     1
 71
     2
 10
0.0
 20
0.0
 11
12.0
 21
9.0
 12
0.0
 22
0.0
 32
0.0
 14
0.0
 24
0.0
 34
0.0
 15
0.0
 25
0.0
 35
0.0
146
0.0
 13
0.0
 23
0.0
 33
0.0
 16
1.0
 26
0.0
 36
0.0
 17
0.0
 27
1.0
 37
0.0
 76
     0
330
23
  0
MLINESTYLE
  5
18
102
{ACAD_REACTORS
330
17
102
}
330
17
100
AcDbMlineStyle
  2
STANDARD
 70
     0
  3

 62
   256
 51
90.0
 52
90.0
 71
     2
 49
0.5
 62
   256
  6
BYLAYER
 49
-0.5
 62
   256
  6
BYLAYER
  0
ACDBPLACEHOLDER
  5
F
102
{ACAD_REACTORS
330
E
102
}
330
E
  0
DICTIONARYVAR
  5
30
102
{ACAD_REACTORS
330
2E
102
}
330
2E
100
DictionaryVariables
280
     0
  1
2
  0
DICTIONARYVAR
  5
2F
102
{ACAD_REACTORS
330
2E
102
}
330
2E
100
DictionaryVariables
280
     0
  1
1
  0
ENDSEC
  0
EOF
