  0
SECTION
  2
HEADER
  9
$ACADVER
  1
AC1015
  9
$ACADMAINTVER
 70
    13
  9
$DWGCODEPAGE
  3
ANSI_1250
  9
$INSBASE
 10
0.0
 20
0.0
 30
0.0
  9
$EXTMIN
 10
652.7075571935228
 20
31.20040953316902
 30
0.0
  9
$EXTMAX
 10
1978.685544803572
 20
996.3783821384735
 30
0.0
  9
$LIMMIN
 10
0.0
 20
0.0
  9
$LIMMAX
 10
420.0
 20
297.0
  9
$ORTHOMODE
 70
     0
  9
$REGENMODE
 70
     1
  9
$FILLMODE
 70
     1
  9
$QTEXTMODE
 70
     0
  9
$MIRRTEXT
 70
     1
  9
$LTSCALE
 40
1.0
  9
$ATTMODE
 70
     1
  9
$TEXTSIZE
 40
20.0
  9
$TRACEWID
 40
1.0
  9
$TEXTSTYLE
  7
Standard
  9
$CLAYER
  8
popis
  9
$CELTYPE
  6
ByLayer
  9
$CECOLOR
 62
   256
  9
$CELTSCALE
 40
1.0
  9
$DISPSILH
 70
     0
  9
$DIMSCALE
 40
10.0
  9
$DIMASZ
 40
2.0
  9
$DIMEXO
 40
0.625
  9
$DIMDLI
 40
3.75
  9
$DIMRND
 40
0.0
  9
$DIMDLE
 40
0.0
  9
$DIMEXE
 40
1.25
  9
$DIMTP
 40
0.0
  9
$DIMTM
 40
0.0
  9
$DIMTXT
 40
2.0
  9
$DIMCEN
 40
2.5
  9
$DIMTSZ
 40
0.0
  9
$DIMTOL
 70
     0
  9
$DIMLIM
 70
     0
  9
$DIMTIH
 70
     0
  9
$DIMTOH
 70
     0
  9
$DIMSE1
 70
     0
  9
$DIMSE2
 70
     0
  9
$DIMTAD
 70
     1
  9
$DIMZIN
 70
     8
  9
$DIMBLK
  1

  9
$DIMASO
 70
     1
  9
$DIMSHO
 70
     1
  9
$DIMPOST
  1

  9
$DIMAPOST
  1

  9
$DIMALT
 70
     0
  9
$DIMALTD
 70
     3
  9
$DIMALTF
 40
0.03937007874016
  9
$DIMLFAC
 40
1.0
  9
$DIMTOFL
 70
     1
  9
$DIMTVP
 40
0.0
  9
$DIMTIX
 70
     0
  9
$DIMSOXD
 70
     0
  9
$DIMSAH
 70
     0
  9
$DIMBLK1
  1

  9
$DIMBLK2
  1

  9
$DIMSTYLE
  2
ISO-25
  9
$DIMCLRD
 70
     0
  9
$DIMCLRE
 70
     0
  9
$DIMCLRT
 70
     0
  9
$DIMTFAC
 40
1.0
  9
$DIMGAP
 40
0.625
  9
$DIMJUST
 70
     0
  9
$DIMSD1
 70
     0
  9
$DIMSD2
 70
     0
  9
$DIMTOLJ
 70
     0
  9
$DIMTZIN
 70
     8
  9
$DIMALTZ
 70
     0
  9
$DIMALTTZ
 70
     0
  9
$DIMUPT
 70
     0
  9
$DIMDEC
 70
     2
  9
$DIMTDEC
 70
     2
  9
$DIMALTU
 70
     2
  9
$DIMALTTD
 70
     3
  9
$DIMTXSTY
  7
Standard
  9
$DIMAUNIT
 70
     0
  9
$DIMADEC
 70
     0
  9
$DIMALTRND
 40
0.0
  9
$DIMAZIN
 70
     0
  9
$DIMDSEP
 70
    44
  9
$DIMATFIT
 70
     3
  9
$DIMFRAC
 70
     0
  9
$DIMLDRBLK
  1

  9
$DIMLUNIT
 70
     2
  9
$DIMLWD
 70
    -2
  9
$DIMLWE
 70
    -2
  9
$DIMTMOVE
 70
     0
  9
$LUNITS
 70
     2
  9
$LUPREC
 70
     4
  9
$SKETCHINC
 40
1.0
  9
$FILLETRAD
 40
2.5
  9
$AUNITS
 70
     0
  9
$AUPREC
 70
     0
  9
$MENU
  1
.
  9
$ELEVATION
 40
0.0
  9
$PELEVATION
 40
0.0
  9
$THICKNESS
 40
0.0
  9
$LIMCHECK
 70
     0
  9
$CHAMFERA
 40
10.0
  9
$CHAMFERB
 40
10.0
  9
$CHAMFERC
 40
20.0
  9
$CHAMFERD
 40
0.0
  9
$SKPOLY
 70
     0
  9
$TDCREATE
 40
2453639.692351574
  9
$TDUCREATE
 40
2453639.650684907
  9
$TDUPDATE
 40
2453681.788566030
  9
$TDUUPDATE
 40
2453681.746899363
  9
$TDINDWG
 40
0.1189246528
  9
$TDUSRTIMER
 40
0.1189240741
  9
$USRTIMER
 70
     1
  9
$ANGBASE
 50
0.0
  9
$ANGDIR
 70
     0
  9
$PDMODE
 70
     0
  9
$PDSIZE
 40
0.0
  9
$PLINEWID
 40
0.0
  9
$SPLFRAME
 70
     0
  9
$SPLINETYPE
 70
     6
  9
$SPLINESEGS
 70
     8
  9
$HANDSEED
  5
2BD
  9
$SURFTAB1
 70
     6
  9
$SURFTAB2
 70
     6
  9
$SURFTYPE
 70
     6
  9
$SURFU
 70
     6
  9
$SURFV
 70
     6
  9
$UCSBASE
  2

  9
$UCSNAME
  2

  9
$UCSORG
 10
0.0
 20
0.0
 30
0.0
  9
$UCSXDIR
 10
1.0
 20
0.0
 30
0.0
  9
$UCSYDIR
 10
0.0
 20
1.0
 30
0.0
  9
$UCSORTHOREF
  2

  9
$UCSORTHOVIEW
 70
     1
  9
$UCSORGTOP
 10
0.0
 20
0.0
 30
0.0
  9
$UCSORGBOTTOM
 10
0.0
 20
0.0
 30
0.0
  9
$UCSORGLEFT
 10
0.0
 20
0.0
 30
0.0
  9
$UCSORGRIGHT
 10
0.0
 20
0.0
 30
0.0
  9
$UCSORGFRONT
 10
0.0
 20
0.0
 30
0.0
  9
$UCSORGBACK
 10
0.0
 20
0.0
 30
0.0
  9
$PUCSBASE
  2

  9
$PUCSNAME
  2

  9
$PUCSORG
 10
0.0
 20
0.0
 30
0.0
  9
$PUCSXDIR
 10
1.0
 20
0.0
 30
0.0
  9
$PUCSYDIR
 10
0.0
 20
1.0
 30
0.0
  9
$PUCSORTHOREF
  2

  9
$PUCSORTHOVIEW
 70
     0
  9
$PUCSORGTOP
 10
0.0
 20
0.0
 30
0.0
  9
$PUCSORGBOTTOM
 10
0.0
 20
0.0
 30
0.0
  9
$PUCSORGLEFT
 10
0.0
 20
0.0
 30
0.0
  9
$PUCSORGRIGHT
 10
0.0
 20
0.0
 30
0.0
  9
$PUCSORGFRONT
 10
0.0
 20
0.0
 30
0.0
  9
$PUCSORGBACK
 10
0.0
 20
0.0
 30
0.0
  9
$USERI1
 70
     0
  9
$USERI2
 70
     0
  9
$USERI3
 70
     0
  9
$USERI4
 70
     0
  9
$USERI5
 70
     0
  9
$USERR1
 40
0.0
  9
$USERR2
 40
0.0
  9
$USERR3
 40
0.0
  9
$USERR4
 40
0.0
  9
$USERR5
 40
0.0
  9
$WORLDVIEW
 70
     1
  9
$SHADEDGE
 70
     3
  9
$SHADEDIF
 70
    70
  9
$TILEMODE
 70
     1
  9
$MAXACTVP
 70
    64
  9
$PINSBASE
 10
0.0
 20
0.0
 30
0.0
  9
$PLIMCHECK
 70
     0
  9
$PEXTMIN
 10
1.000000000000000E+20
 20
1.000000000000000E+20
 30
1.000000000000000E+20
  9
$PEXTMAX
 10
-1.000000000000000E+20
 20
-1.000000000000000E+20
 30
-1.000000000000000E+20
  9
$PLIMMIN
 10
0.0
 20
0.0
  9
$PLIMMAX
 10
420.0
 20
297.0
  9
$UNITMODE
 70
     0
  9
$VISRETAIN
 70
     1
  9
$PLINEGEN
 70
     0
  9
$PSLTSCALE
 70
     1
  9
$TREEDEPTH
 70
  3020
  9
$CMLSTYLE
  2
Standard
  9
$CMLJUST
 70
     0
  9
$CMLSCALE
 40
20.0
  9
$PROXYGRAPHICS
 70
     1
  9
$MEASUREMENT
 70
     1
  9
$CELWEIGHT
370
    -1
  9
$ENDCAPS
280
     0
  9
$JOINSTYLE
280
     0
  9
$LWDISPLAY
290
     0
  9
$INSUNITS
 70
     4
  9
$HYPERLINKBASE
  1

  9
$STYLESHEET
  1

  9
$XEDIT
290
     1
  9
$CEPSNTYPE
380
     0
  9
$PSTYLEMODE
290
     1
  9
$FINGERPRINTGUID
  2
{9B47308E-04D6-42FB-BD32-F27AC533D1CD}
  9
$VERSIONGUID
  2
{136AF4E5-4D24-4C53-8A7E-A8C8D7C5F44F}
  9
$EXTNAMES
290
     1
  9
$PSVPSCALE
 40
0.0
  9
$OLESTARTUP
290
     0
  0
ENDSEC
  0
SECTION
  2
CLASSES
  0
CLASS
  1
ACDBDICTIONARYWDFLT
  2
AcDbDictionaryWithDefault
  3
AutoCAD 2000
 90
        0
280
     0
281
     0
  0
CLASS
  1
ACDBPLACEHOLDER
  2
AcDbPlaceHolder
  3
AutoCAD 2000
 90
        0
280
     0
281
     0
  0
CLASS
  1
LAYOUT
  2
AcDbLayout
  3
AutoCAD 2000
 90
        0
280
     0
281
     0
  0
CLASS
  1
DICTIONARYVAR
  2
AcDbDictionaryVar
  3
AutoCAD 2000
 90
        0
280
     0
281
     0
  0
CLASS
  1
DIMASSOC
  2
AcDbDimAssoc
  3
"AcDbDimAssoc|Product Desc:     AcDim ARX App For Dimension|Company:          Autodesk, Inc.|WEB Address:      www.autodesk.com"
 90
        0
280
     0
281
     0
  0
ENDSEC
  0
SECTION
  2
TABLES
  0
TABLE
  2
VPORT
  5
8
330
0
100
AcDbSymbolTable
 70
    10
  0
VPORT
  5
2BC
330
8
100
AcDbSymbolTableRecord
100
AcDbViewportTableRecord
  2
*Active
 70
     0
 10
0.0
 20
0.0
 11
1.0
 21
1.0
 12
1315.696550998547
 22
513.7893958358213
 13
0.0
 23
0.0
 14
10.0
 24
10.0
 15
10.0
 25
10.0
 16
0.0
 26
0.0
 36
1.0
 17
0.0
 27
0.0
 37
0.0
 40
974.2977644724412
 41
1.697160883280757
 42
50.0
 43
0.0
 44
0.0
 50
0.0
 51
0.0
 71
     0
 72
   100
 73
     1
 74
     3
 75
     0
 76
     0
 77
     0
 78
     0
281
     0
 65
     1
110
0.0
120
0.0
130
0.0
111
1.0
121
0.0
131
0.0
112
0.0
122
1.0
132
0.0
 79
     1
146
0.0
  0
ENDTAB
  0
TABLE
  2
LTYPE
  5
5
330
0
100
AcDbSymbolTable
 70
     3
  0
LTYPE
  5
14
330
5
100
AcDbSymbolTableRecord
100
AcDbLinetypeTableRecord
  2
ByBlock
 70
     0
  3

 72
    65
 73
     0
 40
0.0
  0
LTYPE
  5
15
330
5
100
AcDbSymbolTableRecord
100
AcDbLinetypeTableRecord
  2
ByLayer
 70
     0
  3

 72
    65
 73
     0
 40
0.0
  0
LTYPE
  5
16
330
5
100
AcDbSymbolTableRecord
100
AcDbLinetypeTableRecord
  2
Continuous
 70
     0
  3
Solid line
 72
    65
 73
     0
 40
0.0
  0
LTYPE
  5
121
330
5
100
AcDbSymbolTableRecord
100
AcDbLinetypeTableRecord
  2
ACAD_ISO02W100
 70
     0
  3
ISO \U+00E8árkovaná __ __ __ __ __ __ __ __ __ __ __ 
 72
    65
 73
     2
 40
15.0
 49
12.0
 74
     0
 49
-3.0
 74
     0
  0
LTYPE
  5
122
330
5
100
AcDbSymbolTableRecord
100
AcDbLinetypeTableRecord
  2
ACAD_ISO03W100
 70
     0
  3
ISO p\U+00F8erušovaná __    __    __    __    __    _
 72
    65
 73
     2
 40
30.0
 49
12.0
 74
     0
 49
-18.0
 74
     0
  0
ENDTAB
  0
TABLE
  2
LAYER
  5
2
330
0
100
AcDbSymbolTable
 70
     5
  0
LAYER
  5
10
330
2
100
AcDbSymbolTableRecord
100
AcDbLayerTableRecord
  2
0
 70
     0
 62
    90
  6
Continuous
370
    -3
390
F
  0
LAYER
  5
2B
330
2
100
AcDbSymbolTableRecord
100
AcDbLayerTableRecord
  2
koty
 70
     0
 62
    41
  6
Continuous
370
    -3
390
F
  0
LAYER
  5
2C
330
2
100
AcDbSymbolTableRecord
100
AcDbLayerTableRecord
  2
popis
 70
     0
 62
   210
  6
Continuous
370
    -3
390
F
  0
LAYER
  5
4E
330
2
100
AcDbSymbolTableRecord
100
AcDbLayerTableRecord
  2
Defpoints
 70
     0
 62
     7
  6
Continuous
290
     0
370
    -3
390
F
  0
LAYER
  5
C4
330
2
100
AcDbSymbolTableRecord
100
AcDbLayerTableRecord
  2
srafy
 70
     0
 62
    90
  6
Continuous
370
    -3
390
F
  0
ENDTAB
  0
TABLE
  2
STYLE
  5
3
330
0
100
AcDbSymbolTable
 70
     2
  0
STYLE
  5
11
330
3
100
AcDbSymbolTableRecord
100
AcDbTextStyleTableRecord
  2
Standard
 70
     0
 40
0.0
 41
1.0
 50
0.0
 71
     0
 42
20.0
  3
txt
  4

  0
STYLE
  5
120
330
3
100
AcDbSymbolTableRecord
100
AcDbTextStyleTableRecord
  2

 70
     1
 40
0.0
 41
1.0
 50
0.0
 71
     0
 42
2.5
  3
ltypeshp.shx
  4

  0
ENDTAB
  0
TABLE
  2
VIEW
  5
6
330
0
100
AcDbSymbolTable
 70
     0
  0
ENDTAB
  0
TABLE
  2
UCS
  5
7
330
0
100
AcDbSymbolTable
 70
     0
  0
ENDTAB
  0
TABLE
  2
APPID
  5
9
330
0
100
AcDbSymbolTable
 70
     1
  0
APPID
  5
12
330
9
100
AcDbSymbolTableRecord
100
AcDbRegAppTableRecord
  2
ACAD
 70
     0
  0
ENDTAB
  0
TABLE
  2
DIMSTYLE
  5
A
330
0
100
AcDbSymbolTable
 70
     1
100
AcDbDimStyleTable
 71
     1
340
27
  0
DIMSTYLE
105
27
102
{ACAD_REACTORS
330
21D
330
235
330
24D
330
265
330
27D
330
2A2
102
}
330
A
100
AcDbSymbolTableRecord
100
AcDbDimStyleTableRecord
  2
ISO-25
 70
     0
 40
10.0
 41
2.0
 42
0.625
 43
3.75
 44
1.25
 73
     0
 74
     0
 77
     1
 78
     8
140
2.0
141
2.5
143
0.03937007874016
147
0.625
171
     3
172
     1
271
     2
272
     2
274
     3
278
    44
283
     0
284
     8
340
11
  0
ENDTAB
  0
TABLE
  2
BLOCK_RECORD
  5
1
330
0
100
AcDbSymbolTable
 70
     7
  0
BLOCK_RECORD
  5
1F
330
1
100
AcDbSymbolTableRecord
100
AcDbBlockTableRecord
  2
*Model_Space
340
22
  0
BLOCK_RECORD
  5
1B
330
1
100
AcDbSymbolTableRecord
100
AcDbBlockTableRecord
  2
*Paper_Space
340
1E
  0
BLOCK_RECORD
  5
23
330
1
100
AcDbSymbolTableRecord
100
AcDbBlockTableRecord
  2
*Paper_Space0
340
26
  0
BLOCK_RECORD
  5
21E
330
1
100
AcDbSymbolTableRecord
100
AcDbBlockTableRecord
  2
*D1
340
0
  0
BLOCK_RECORD
  5
236
330
1
100
AcDbSymbolTableRecord
100
AcDbBlockTableRecord
  2
*D2
340
0
  0
BLOCK_RECORD
  5
24E
330
1
100
AcDbSymbolTableRecord
100
AcDbBlockTableRecord
  2
*D3
340
0
  0
BLOCK_RECORD
  5
266
330
1
100
AcDbSymbolTableRecord
100
AcDbBlockTableRecord
  2
*D4
340
0
  0
BLOCK_RECORD
  5
27E
330
1
100
AcDbSymbolTableRecord
100
AcDbBlockTableRecord
  2
*D5
340
0
  0
BLOCK_RECORD
  5
2A3
330
1
100
AcDbSymbolTableRecord
100
AcDbBlockTableRecord
  2
*D6
340
0
  0
ENDTAB
  0
ENDSEC
  0
SECTION
  2
BLOCKS
  0
BLOCK
  5
20
330
1F
100
AcDbEntity
  8
0
100
AcDbBlockBegin
  2
*Model_Space
 70
     0
 10
0.0
 20
0.0
 30
0.0
  3
*Model_Space
  1

  0
ENDBLK
  5
21
330
1F
100
AcDbEntity
  8
0
100
AcDbBlockEnd
  0
BLOCK
  5
1C
330
1B
100
AcDbEntity
 67
     1
  8
0
100
AcDbBlockBegin
  2
*Paper_Space
 70
     0
 10
0.0
 20
0.0
 30
0.0
  3
*Paper_Space
  1

  0
ENDBLK
  5
1D
330
1B
100
AcDbEntity
 67
     1
  8
0
100
AcDbBlockEnd
  0
BLOCK
  5
24
330
23
100
AcDbEntity
  8
0
100
AcDbBlockBegin
  2
*Paper_Space0
 70
     0
 10
0.0
 20
0.0
 30
0.0
  3
*Paper_Space0
  1

  0
ENDBLK
  5
25
330
23
100
AcDbEntity
  8
0
100
AcDbBlockEnd
  0
BLOCK
  5
228
330
21E
100
AcDbEntity
  8
0
100
AcDbBlockBegin
  2
*D1
 70
     1
 10
0.0
 20
0.0
 30
0.0
  3
*D1
  1

  0
LINE
  5
22B
330
21E
100
AcDbEntity
  8
koty
 62
     0
370
    -2
100
AcDbLine
 10
745.0143498232228
 20
185.0451489961142
 30
0.0
 11
745.0143498232228
 21
31.20040953316902
 31
0.0
  0
LINE
  5
22C
330
21E
100
AcDbEntity
  8
koty
 62
     0
370
    -2
100
AcDbLine
 10
1184.014349823222
 20
185.0451489961142
 30
0.0
 11
1184.014349823222
 21
31.20040953316902
 31
0.0
  0
LINE
  5
22D
330
21E
100
AcDbEntity
  8
koty
 62
     0
370
    -2
100
AcDbLine
 10
765.0143498232227
 20
43.70040953316902
 30
0.0
 11
1164.014349823222
 21
43.70040953316902
 31
0.0
  0
SOLID
  5
22E
330
21E
100
AcDbEntity
  8
koty
 62
     0
100
AcDbTrace
 10
765.0143498232227
 20
47.03374286650236
 30
0.0
 11
765.0143498232227
 21
40.36707619983569
 31
0.0
 12
745.0143498232228
 22
43.70040953316902
 32
0.0
 13
745.0143498232228
 23
43.70040953316902
 33
0.0
  0
SOLID
  5
22F
330
21E
100
AcDbEntity
  8
koty
 62
     0
100
AcDbTrace
 10
1164.014349823222
 20
47.03374286650236
 30
0.0
 11
1164.014349823222
 21
40.36707619983569
 31
0.0
 12
1184.014349823222
 22
43.70040953316902
 32
0.0
 13
1184.014349823222
 23
43.70040953316902
 33
0.0
  0
MTEXT
  5
230
330
21E
100
AcDbEntity
  8
koty
 62
     0
100
AcDbMText
 10
964.5143498232227
 20
59.95040953316902
 30
0.0
 40
20.0
 41
0.0
 71
     5
 72
     1
  1
439
 73
     1
 44
1.0
  0
POINT
  5
231
330
21E
100
AcDbEntity
  8
Defpoints
 62
     0
100
AcDbPoint
 10
745.0143498232228
 20
191.2951489961142
 30
0.0
  0
POINT
  5
232
330
21E
100
AcDbEntity
  8
Defpoints
 62
     0
100
AcDbPoint
 10
1184.014349823222
 20
191.2951489961142
 30
0.0
  0
POINT
  5
233
330
21E
100
AcDbEntity
  8
Defpoints
 62
     0
100
AcDbPoint
 10
1184.014349823222
 20
43.70040953316902
 30
0.0
  0
ENDBLK
  5
229
330
21E
100
AcDbEntity
  8
0
100
AcDbBlockEnd
  0
BLOCK
  5
240
330
236
100
AcDbEntity
  8
0
100
AcDbBlockBegin
  2
*D2
 70
     1
 10
0.0
 20
0.0
 30
0.0
  3
*D2
  1

  0
LINE
  5
243
330
236
100
AcDbEntity
  8
koty
 62
     0
370
    -2
100
AcDbLine
 10
748.7643498232228
 20
181.2951489961142
 30
0.0
 11
666.457557193523
 21
181.2951489961142
 31
0.0
  0
LINE
  5
244
330
236
100
AcDbEntity
  8
koty
 62
     0
370
    -2
100
AcDbLine
 10
738.7643498232228
 20
581.2951489961143
 30
0.0
 11
666.4575571935231
 21
581.2951489961143
 31
0.0
  0
LINE
  5
245
330
236
100
AcDbEntity
  8
koty
 62
     0
370
    -2
100
AcDbLine
 10
678.957557193523
 20
201.2951489961142
 30
0.0
 11
678.9575571935231
 21
561.2951489961143
 31
0.0
  0
SOLID
  5
246
330
236
100
AcDbEntity
  8
koty
 62
     0
100
AcDbTrace
 10
675.6242238601896
 20
201.2951489961142
 30
0.0
 11
682.2908905268564
 21
201.2951489961142
 31
0.0
 12
678.957557193523
 22
181.2951489961142
 32
0.0
 13
678.957557193523
 23
181.2951489961142
 33
0.0
  0
SOLID
  5
247
330
236
100
AcDbEntity
  8
koty
 62
     0
100
AcDbTrace
 10
675.6242238601897
 20
561.2951489961143
 30
0.0
 11
682.2908905268564
 21
561.2951489961143
 31
0.0
 12
678.9575571935231
 22
581.2951489961143
 32
0.0
 13
678.9575571935231
 23
581.2951489961143
 33
0.0
  0
MTEXT
  5
248
330
236
100
AcDbEntity
  8
koty
 62
     0
100
AcDbMText
 10
662.707557193523
 20
381.2951489961143
 30
0.0
 40
20.0
 41
0.0
 71
     5
 72
     1
  1
400
 11
0.0000000000000001
 21
1.0
 31
0.0
 73
     1
 44
1.0
  0
POINT
  5
249
330
236
100
AcDbEntity
  8
Defpoints
 62
     0
100
AcDbPoint
 10
755.0143498232228
 20
181.2951489961142
 30
0.0
  0
POINT
  5
24A
330
236
100
AcDbEntity
  8
Defpoints
 62
     0
100
AcDbPoint
 10
745.0143498232228
 20
581.2951489961143
 30
0.0
  0
POINT
  5
24B
330
236
100
AcDbEntity
  8
Defpoints
 62
     0
100
AcDbPoint
 10
678.9575571935231
 20
581.2951489961143
 30
0.0
  0
ENDBLK
  5
241
330
236
100
AcDbEntity
  8
0
100
AcDbBlockEnd
  0
BLOCK
  5
258
330
24E
100
AcDbEntity
  8
0
100
AcDbBlockBegin
  2
*D3
 70
     1
 10
0.0
 20
0.0
 30
0.0
  3
*D3
  1

  0
LINE
  5
25B
330
24E
100
AcDbEntity
  8
koty
 62
     0
370
    -2
100
AcDbLine
 10
807.0143498232228
 20
587.5451489961142
 30
0.0
 11
807.0143498232228
 21
885.794233868062
 31
0.0
  0
LINE
  5
25C
330
24E
100
AcDbEntity
  8
koty
 62
     0
370
    -2
100
AcDbLine
 10
1122.014349823222
 20
587.5451489961142
 30
0.0
 11
1122.014349823222
 21
885.794233868062
 31
0.0
  0
LINE
  5
25D
330
24E
100
AcDbEntity
  8
koty
 62
     0
370
    -2
100
AcDbLine
 10
827.0143498232227
 20
873.294233868062
 30
0.0
 11
1102.014349823222
 21
873.294233868062
 31
0.0
  0
SOLID
  5
25E
330
24E
100
AcDbEntity
  8
koty
 62
     0
100
AcDbTrace
 10
827.0143498232227
 20
876.6275672013954
 30
0.0
 11
827.0143498232227
 21
869.9609005347287
 31
0.0
 12
807.0143498232228
 22
873.294233868062
 32
0.0
 13
807.0143498232228
 23
873.294233868062
 33
0.0
  0
SOLID
  5
25F
330
24E
100
AcDbEntity
  8
koty
 62
     0
100
AcDbTrace
 10
1102.014349823222
 20
876.6275672013954
 30
0.0
 11
1102.014349823222
 21
869.9609005347287
 31
0.0
 12
1122.014349823222
 22
873.294233868062
 32
0.0
 13
1122.014349823222
 23
873.294233868062
 33
0.0
  0
MTEXT
  5
260
330
24E
100
AcDbEntity
  8
koty
 62
     0
100
AcDbMText
 10
964.5143498232227
 20
889.544233868062
 30
0.0
 40
20.0
 41
0.0
 71
     5
 72
     1
  1
315
 73
     1
 44
1.0
  0
POINT
  5
261
330
24E
100
AcDbEntity
  8
Defpoints
 62
     0
100
AcDbPoint
 10
807.0143498232228
 20
581.2951489961142
 30
0.0
  0
POINT
  5
262
330
24E
100
AcDbEntity
  8
Defpoints
 62
     0
100
AcDbPoint
 10
1122.014349823222
 20
581.2951489961142
 30
0.0
  0
POINT
  5
263
330
24E
100
AcDbEntity
  8
Defpoints
 62
     0
100
AcDbPoint
 10
1122.014349823222
 20
873.294233868062
 30
0.0
  0
ENDBLK
  5
259
330
24E
100
AcDbEntity
  8
0
100
AcDbBlockEnd
  0
BLOCK
  5
270
330
266
100
AcDbEntity
  8
0
100
AcDbBlockBegin
  2
*D4
 70
     1
 10
0.0
 20
0.0
 30
0.0
  3
*D4
  1

  0
LINE
  5
273
330
266
100
AcDbEntity
  8
koty
 62
     0
370
    -2
100
AcDbLine
 10
1389.888011451967
 20
175.0451489961142
 30
0.0
 11
1389.888011451967
 21
31.20040953316902
 31
0.0
  0
LINE
  5
274
330
266
100
AcDbEntity
  8
koty
 62
     0
370
    -2
100
AcDbLine
 10
1859.888011451967
 20
175.0451489961142
 30
0.0
 11
1859.888011451967
 21
31.20040953316902
 31
0.0
  0
LINE
  5
275
330
266
100
AcDbEntity
  8
koty
 62
     0
370
    -2
100
AcDbLine
 10
1409.888011451967
 20
43.70040953316902
 30
0.0
 11
1839.888011451966
 21
43.70040953316902
 31
0.0
  0
SOLID
  5
276
330
266
100
AcDbEntity
  8
koty
 62
     0
100
AcDbTrace
 10
1409.888011451967
 20
47.03374286650236
 30
0.0
 11
1409.888011451967
 21
40.36707619983569
 31
0.0
 12
1389.888011451967
 22
43.70040953316902
 32
0.0
 13
1389.888011451967
 23
43.70040953316902
 33
0.0
  0
SOLID
  5
277
330
266
100
AcDbEntity
  8
koty
 62
     0
100
AcDbTrace
 10
1839.888011451966
 20
47.03374286650236
 30
0.0
 11
1839.888011451966
 21
40.36707619983569
 31
0.0
 12
1859.888011451967
 22
43.70040953316902
 32
0.0
 13
1859.888011451967
 23
43.70040953316902
 33
0.0
  0
MTEXT
  5
278
330
266
100
AcDbEntity
  8
koty
 62
     0
100
AcDbMText
 10
1624.888011451967
 20
59.95040953316902
 30
0.0
 40
20.0
 41
0.0
 71
     5
 72
     1
  1
470
 73
     1
 44
1.0
  0
POINT
  5
279
330
266
100
AcDbEntity
  8
Defpoints
 62
     0
100
AcDbPoint
 10
1389.888011451967
 20
181.2951489961142
 30
0.0
  0
POINT
  5
27A
330
266
100
AcDbEntity
  8
Defpoints
 62
     0
100
AcDbPoint
 10
1859.888011451967
 20
181.2951489961142
 30
0.0
  0
POINT
  5
27B
330
266
100
AcDbEntity
  8
Defpoints
 62
     0
100
AcDbPoint
 10
1859.888011451967
 20
43.70040953316902
 30
0.0
  0
ENDBLK
  5
271
330
266
100
AcDbEntity
  8
0
100
AcDbBlockEnd
  0
BLOCK
  5
288
330
27E
100
AcDbEntity
  8
0
100
AcDbBlockBegin
  2
*D5
 70
     1
 10
0.0
 20
0.0
 30
0.0
  3
*D5
  1

  0
LINE
  5
28B
330
27E
100
AcDbEntity
  8
koty
 62
     0
370
    -2
100
AcDbLine
 10
1519.388011451966
 20
747.0451489961141
 30
0.0
 11
1519.388011451966
 21
885.794233868062
 31
0.0
  0
LINE
  5
28C
330
27E
100
AcDbEntity
  8
koty
 62
     0
370
    -2
100
AcDbLine
 10
1730.388011451966
 20
787.0451489961141
 30
0.0
 11
1730.388011451966
 21
885.794233868062
 31
0.0
  0
LINE
  5
28D
330
27E
100
AcDbEntity
  8
koty
 62
     0
370
    -2
100
AcDbLine
 10
1539.388011451966
 20
873.294233868062
 30
0.0
 11
1710.388011451966
 21
873.294233868062
 31
0.0
  0
SOLID
  5
28E
330
27E
100
AcDbEntity
  8
koty
 62
     0
100
AcDbTrace
 10
1539.388011451966
 20
876.6275672013954
 30
0.0
 11
1539.388011451966
 21
869.9609005347287
 31
0.0
 12
1519.388011451966
 22
873.294233868062
 32
0.0
 13
1519.388011451966
 23
873.294233868062
 33
0.0
  0
SOLID
  5
28F
330
27E
100
AcDbEntity
  8
koty
 62
     0
100
AcDbTrace
 10
1710.388011451966
 20
876.6275672013954
 30
0.0
 11
1710.388011451966
 21
869.9609005347287
 31
0.0
 12
1730.388011451966
 22
873.294233868062
 32
0.0
 13
1730.388011451966
 23
873.294233868062
 33
0.0
  0
MTEXT
  5
290
330
27E
100
AcDbEntity
  8
koty
 62
     0
100
AcDbMText
 10
1624.888011451966
 20
889.544233868062
 30
0.0
 40
20.0
 41
0.0
 71
     5
 72
     1
  1
211
 73
     1
 44
1.0
  0
POINT
  5
291
330
27E
100
AcDbEntity
  8
Defpoints
 62
     0
100
AcDbPoint
 10
1519.388011451966
 20
740.7951489961141
 30
0.0
  0
POINT
  5
292
330
27E
100
AcDbEntity
  8
Defpoints
 62
     0
100
AcDbPoint
 10
1730.388011451966
 20
780.7951489961141
 30
0.0
  0
POINT
  5
293
330
27E
100
AcDbEntity
  8
Defpoints
 62
     0
100
AcDbPoint
 10
1730.388011451966
 20
873.294233868062
 30
0.0
  0
ENDBLK
  5
289
330
27E
100
AcDbEntity
  8
0
100
AcDbBlockEnd
  0
BLOCK
  5
2AD
330
2A3
100
AcDbEntity
  8
0
100
AcDbBlockBegin
  2
*D6
 70
     1
 10
0.0
 20
0.0
 30
0.0
  3
*D6
  1

  0
LINE
  5
2B0
330
2A3
100
AcDbEntity
  8
koty
 62
     0
370
    -2
100
AcDbLine
 10
1866.138011451966
 20
181.2951489961142
 30
0.0
 11
1978.685544803571
 21
181.2951489961142
 31
0.0
  0
LINE
  5
2B1
330
2A3
100
AcDbEntity
  8
koty
 62
     0
370
    -2
100
AcDbLine
 10
1610.300086685134
 20
823.2951489961141
 30
0.0
 11
1978.685544803572
 21
823.2951489961141
 31
0.0
  0
LINE
  5
2B2
330
2A3
100
AcDbEntity
  8
koty
 62
     0
370
    -2
100
AcDbLine
 10
1966.185544803572
 20
201.2951489961142
 30
0.0
 11
1966.185544803572
 21
803.295148996114
 31
0.0
  0
SOLID
  5
2B3
330
2A3
100
AcDbEntity
  8
koty
 62
     0
100
AcDbTrace
 10
1962.852211470238
 20
201.2951489961142
 30
0.0
 11
1969.518878136905
 21
201.2951489961142
 31
0.0
 12
1966.185544803572
 22
181.2951489961142
 32
0.0
 13
1966.185544803572
 23
181.2951489961142
 33
0.0
  0
SOLID
  5
2B4
330
2A3
100
AcDbEntity
  8
koty
 62
     0
100
AcDbTrace
 10
1962.852211470238
 20
803.295148996114
 30
0.0
 11
1969.518878136905
 21
803.295148996114
 31
0.0
 12
1966.185544803572
 22
823.2951489961141
 32
0.0
 13
1966.185544803572
 23
823.2951489961141
 33
0.0
  0
MTEXT
  5
2B5
330
2A3
100
AcDbEntity
  8
koty
 62
     0
100
AcDbMText
 10
1949.935544803572
 20
502.2951489961145
 30
0.0
 40
20.0
 41
0.0
 71
     5
 72
     1
  1
642
 11
0.0000000000000001
 21
1.0
 31
0.0
 73
     1
 44
1.0
  0
POINT
  5
2B6
330
2A3
100
AcDbEntity
  8
Defpoints
 62
     0
100
AcDbPoint
 10
1859.888011451967
 20
181.2951489961142
 30
0.0
  0
POINT
  5
2B7
330
2A3
100
AcDbEntity
  8
Defpoints
 62
     0
100
AcDbPoint
 10
1604.050086685134
 20
823.2951489961141
 30
0.0
  0
POINT
  5
2B8
330
2A3
100
AcDbEntity
  8
Defpoints
 62
     0
100
AcDbPoint
 10
1966.185544803572
 20
823.2951489961141
 30
0.0
  0
ENDBLK
  5
2AE
330
2A3
100
AcDbEntity
  8
0
100
AcDbBlockEnd
  0
ENDSEC
  0
SECTION
  2
ENTITIES
  0
CIRCLE
  5
16D
330
1F
100
AcDbEntity
  8
0
100
AcDbCircle
 10
964.5143498232227
 20
581.2951489961142
 30
0.0
 40
157.5
  0
LINE
  5
174
102
{ACAD_REACTORS
330
234
102
}
330
1F
100
AcDbEntity
  8
0
100
AcDbLine
 10
745.0143498232228
 20
191.2951489961142
 30
0.0
 11
745.0143498232228
 21
619.1384570797655
 31
0.0
  0
CIRCLE
  5
177
330
1F
100
AcDbEntity
  8
0
100
AcDbCircle
 10
964.5143498232227
 20
581.2951489961142
 30
0.0
 40
68.09026708418514
  0
LINE
  5
17A
330
1F
100
AcDbEntity
  8
0
100
AcDbLine
 10
765.0143498232227
 20
211.2951489961142
 30
0.0
 11
765.0143498232227
 21
619.1384570797655
 31
0.0
  0
CIRCLE
  5
17C
330
1F
100
AcDbEntity
  8
0
100
AcDbCircle
 10
964.5143498232227
 20
581.2951489961142
 30
0.0
 40
199.5
  0
ARC
  5
17D
330
1F
100
AcDbEntity
  8
0
100
AcDbCircle
 10
964.5143498232227
 20
581.2951489961142
 30
0.0
 40
140.1415062554936
100
AcDbArc
 50
79.96175669148157
 51
100.0382433085183
  0
LINE
  5
17E
330
1F
100
AcDbEntity
  8
0
100
AcDbLine
 10
940.0869186818423
 20
719.2913169986776
 30
0.0
 11
934.3544919098913
 21
687.3741658991639
 31
0.0
  0
LINE
  5
17F
330
1F
100
AcDbEntity
  8
0
100
AcDbLine
 10
934.3544919098913
 20
687.3741658991639
 30
0.0
 11
941.7543330359583
 21
645.4688671947592
 31
0.0
  0
LINE
  5
180
330
1F
100
AcDbEntity
  8
0
100
AcDbLine
 10
988.9417809646031
 20
719.2913169986776
 30
0.0
 11
994.6742077365543
 21
687.3741658991639
 31
0.0
  0
LINE
  5
181
330
1F
100
AcDbEntity
  8
0
100
AcDbLine
 10
994.6742077365543
 20
687.3741658991639
 30
0.0
 11
987.2743666104872
 21
645.4688671947592
 31
0.0
  0
LINE
  5
182
330
1F
100
AcDbEntity
  8
0
100
AcDbLine
 10
887.7271553333686
 20
660.4538605751133
 30
0.0
 11
920.3182880015246
 21
633.0927608237682
 31
0.0
  0
LINE
  5
183
330
1F
100
AcDbEntity
  8
0
100
AcDbLine
 10
857.2198782787877
 20
671.4480089150265
 30
0.0
 11
887.7271553333686
 21
660.4538605751133
 31
0.0
  0
ARC
  5
184
330
1F
100
AcDbEntity
  8
0
100
AcDbCircle
 10
964.5143498232227
 20
581.2951489961142
 30
0.0
 40
140.1415062554936
100
AcDbArc
 50
139.9617566914815
 51
160.0382433085183
  0
LINE
  5
185
330
1F
100
AcDbEntity
  8
0
100
AcDbLine
 10
832.7924471374073
 20
629.1384570797657
 30
0.0
 11
857.5672974200371
 21
608.2154543201649
 31
0.0
  0
LINE
  5
186
330
1F
100
AcDbEntity
  8
0
100
AcDbLine
 10
857.5672974200371
 20
608.2154543201649
 30
0.0
 11
897.5582712142601
 21
593.6712553671054
 31
0.0
  0
LINE
  5
187
330
1F
100
AcDbEntity
  8
0
100
AcDbLine
 10
857.5672974200371
 20
554.3748436720636
 30
0.0
 11
897.5582712142601
 21
568.9190426251232
 31
0.0
  0
LINE
  5
188
330
1F
100
AcDbEntity
  8
0
100
AcDbLine
 10
832.7924471374073
 20
533.4518409124631
 30
0.0
 11
857.5672974200371
 21
554.3748436720636
 31
0.0
  0
ARC
  5
189
330
1F
100
AcDbEntity
  8
0
100
AcDbCircle
 10
964.5143498232229
 20
581.2951489961145
 30
0.0
 40
140.1415062554936
100
AcDbArc
 50
199.9617566914815
 51
220.0382433085183
  0
LINE
  5
18A
330
1F
100
AcDbEntity
  8
0
100
AcDbLine
 10
857.2198782787877
 20
491.1422890772021
 30
0.0
 11
887.7271553333685
 21
502.1364374171152
 31
0.0
  0
LINE
  5
18B
330
1F
100
AcDbEntity
  8
0
100
AcDbLine
 10
887.7271553333685
 20
502.1364374171152
 30
0.0
 11
920.3182880015246
 21
529.4975371684604
 31
0.0
  0
LINE
  5
18C
330
1F
100
AcDbEntity
  8
0
100
AcDbLine
 10
934.3544919098912
 20
475.2161320930646
 30
0.0
 11
941.7543330359581
 21
517.1214307974692
 31
0.0
  0
LINE
  5
18D
330
1F
100
AcDbEntity
  8
0
100
AcDbLine
 10
940.0869186818423
 20
443.2989809935508
 30
0.0
 11
934.3544919098912
 21
475.2161320930646
 31
0.0
  0
ARC
  5
18E
330
1F
100
AcDbEntity
  8
0
100
AcDbCircle
 10
964.5143498232227
 20
581.2951489961143
 30
0.0
 40
140.1415062554936
100
AcDbArc
 50
259.9617566914815
 51
280.0382433085183
  0
LINE
  5
18F
330
1F
100
AcDbEntity
  8
0
100
AcDbLine
 10
988.941780964603
 20
443.2989809935508
 30
0.0
 11
994.6742077365541
 21
475.2161320930646
 31
0.0
  0
LINE
  5
190
330
1F
100
AcDbEntity
  8
0
100
AcDbLine
 10
994.6742077365541
 20
475.2161320930646
 30
0.0
 11
987.2743666104872
 21
517.1214307974692
 31
0.0
  0
LINE
  5
191
330
1F
100
AcDbEntity
  8
0
100
AcDbLine
 10
1041.301544313077
 20
502.1364374171152
 30
0.0
 11
1008.710411644921
 21
529.4975371684604
 31
0.0
  0
LINE
  5
192
330
1F
100
AcDbEntity
  8
0
100
AcDbLine
 10
1071.808821367657
 20
491.1422890772021
 30
0.0
 11
1041.301544313077
 21
502.1364374171152
 31
0.0
  0
ARC
  5
193
330
1F
100
AcDbEntity
  8
0
100
AcDbCircle
 10
964.5143498232227
 20
581.2951489961144
 30
0.0
 40
140.1415062554936
100
AcDbArc
 50
319.9617566914815
 51
340.0382433085183
  0
LINE
  5
194
330
1F
100
AcDbEntity
  8
0
100
AcDbLine
 10
1096.236252509038
 20
533.451840912463
 30
0.0
 11
1071.461402226408
 21
554.3748436720636
 31
0.0
  0
LINE
  5
195
330
1F
100
AcDbEntity
  8
0
100
AcDbLine
 10
1071.461402226408
 20
554.3748436720636
 30
0.0
 11
1031.470428432185
 21
568.9190426251232
 31
0.0
  0
LINE
  5
196
330
1F
100
AcDbEntity
  8
0
100
AcDbLine
 10
1071.461402226408
 20
608.2154543201648
 30
0.0
 11
1031.470428432185
 21
593.6712553671053
 31
0.0
  0
LINE
  5
197
330
1F
100
AcDbEntity
  8
0
100
AcDbLine
 10
1096.236252509038
 20
629.1384570797654
 30
0.0
 11
1071.461402226408
 21
608.2154543201648
 31
0.0
  0
ARC
  5
198
330
1F
100
AcDbEntity
  8
0
100
AcDbCircle
 10
964.5143498232227
 20
581.2951489961142
 30
0.0
 40
140.1415062554936
100
AcDbArc
 50
19.96175669148152
 51
40.0382433085183
  0
LINE
  5
199
330
1F
100
AcDbEntity
  8
0
100
AcDbLine
 10
1071.808821367657
 20
671.4480089150263
 30
0.0
 11
1041.301544313077
 21
660.4538605751132
 31
0.0
  0
LINE
  5
19A
330
1F
100
AcDbEntity
  8
0
100
AcDbLine
 10
1041.301544313077
 20
660.4538605751132
 30
0.0
 11
1008.710411644921
 21
633.0927608237679
 31
0.0
  0
LINE
  5
19B
330
1F
100
AcDbEntity
  8
0
100
AcDbLine
 10
755.0143498232228
 20
629.1384570797655
 30
0.0
 11
755.0143498232228
 21
629.1384570797655
 31
0.0
  0
LINE
  5
19C
330
1F
100
AcDbEntity
  8
0
100
AcDbLine
 10
1174.014349823223
 20
629.1384570797657
 30
0.0
 11
1174.014349823222
 21
629.1384570797657
 31
0.0
  0
ARC
  5
19D
330
1F
100
AcDbEntity
  8
0
100
AcDbCircle
 10
1174.014349823222
 20
619.1384570797656
 30
0.0
 40
10.0
100
AcDbArc
 50
0.0
 51
89.99999999999968
  0
ARC
  5
19E
330
1F
100
AcDbEntity
  8
0
100
AcDbCircle
 10
1174.014349823223
 20
619.1384570797656
 30
0.0
 40
10.0
100
AcDbArc
 50
90.0
 51
180.0
  0
ARC
  5
19F
330
1F
100
AcDbEntity
  8
0
100
AcDbCircle
 10
755.0143498232228
 20
619.1384570797655
 30
0.0
 40
10.0
100
AcDbArc
 50
90.0
 51
180.0
  0
ARC
  5
1A0
330
1F
100
AcDbEntity
  8
0
100
AcDbCircle
 10
755.0143498232228
 20
619.1384570797655
 30
0.0
 40
10.0
100
AcDbArc
 50
0.0
 51
90.0
  0
LINE
  5
1A1
102
{ACAD_REACTORS
330
24C
102
}
330
1F
100
AcDbEntity
  8
0
100
AcDbLine
 10
755.0143498232228
 20
181.2951489961142
 30
0.0
 11
871.1571989083866
 21
181.2951489961142
 31
0.0
  0
LINE
  5
1A2
330
1F
100
AcDbEntity
  8
0
100
AcDbLine
 10
878.2671798079764
 20
184.2632096044905
 30
0.0
 11
897.3971187196573
 21
203.6054554199747
 31
0.0
  0
LINE
  5
1A3
330
1F
100
AcDbEntity
  8
0
100
AcDbLine
 10
904.5070996192471
 20
206.5735160283511
 30
0.0
 11
964.5143498232227
 21
206.5735160283511
 31
0.0
  0
LINE
  5
1A5
330
1F
100
AcDbEntity
  8
0
100
AcDbLine
 10
775.0143498232228
 20
201.2951489961142
 30
0.0
 11
862.8082014911147
 21
201.2951489961142
 31
0.0
  0
LINE
  5
1A6
330
1F
100
AcDbEntity
  8
0
100
AcDbLine
 10
869.9181823907045
 20
204.2632096044906
 30
0.0
 11
889.0481213023855
 21
223.6054554199748
 31
0.0
  0
LINE
  5
1A7
330
1F
100
AcDbEntity
  8
0
100
AcDbLine
 10
896.1581022019753
 20
226.5735160283512
 30
0.0
 11
964.5143498232227
 21
226.5735160283511
 31
0.0
  0
ARC
  5
1A8
330
1F
100
AcDbEntity
  8
0
100
AcDbCircle
 10
755.0143498232228
 20
191.2951489961142
 30
0.0
 40
10.0
100
AcDbArc
 50
180.0
 51
270.0
  0
ARC
  5
1A9
330
1F
100
AcDbEntity
  8
0
100
AcDbCircle
 10
775.0143498232228
 20
211.2951489961142
 30
0.0
 40
10.0
100
AcDbArc
 50
180.0
 51
270.0
  0
ARC
  5
1AA
330
1F
100
AcDbEntity
  8
0
100
AcDbCircle
 10
871.1571989083866
 20
191.2951489961142
 30
0.0
 40
10.0
100
AcDbArc
 50
270.0
 51
315.3161807980745
  0
ARC
  5
1AB
330
1F
100
AcDbEntity
  8
0
100
AcDbCircle
 10
862.8082014911147
 20
211.2951489961142
 30
0.0
 40
10.0
100
AcDbArc
 50
270.0
 51
315.3161807980744
  0
ARC
  5
1AC
330
1F
100
AcDbEntity
  8
0
100
AcDbCircle
 10
896.1581022019753
 20
216.5735160283511
 30
0.0
 40
10.0
100
AcDbArc
 50
89.99999999999998
 51
135.3161807980743
  0
ARC
  5
1AD
330
1F
100
AcDbEntity
  8
0
100
AcDbCircle
 10
904.5070996192471
 20
196.5735160283511
 30
0.0
 40
10.0
100
AcDbArc
 50
90.0
 51
135.3161807980745
  0
LINE
  5
1AE
330
1F
100
AcDbEntity
  8
0
100
AcDbLine
 10
1154.014349823222
 20
201.2951489961142
 30
0.0
 11
1066.22049815533
 21
201.2951489961142
 31
0.0
  0
LINE
  5
1AF
330
1F
100
AcDbEntity
  8
0
100
AcDbLine
 10
1174.014349823222
 20
181.2951489961142
 30
0.0
 11
1057.871500738058
 21
181.2951489961142
 31
0.0
  0
LINE
  5
1B0
330
1F
100
AcDbEntity
  8
0
100
AcDbLine
 10
1050.761519838469
 20
184.2632096044905
 30
0.0
 11
1031.631580926788
 21
203.6054554199747
 31
0.0
  0
LINE
  5
1B1
330
1F
100
AcDbEntity
  8
0
100
AcDbLine
 10
1024.521600027198
 20
206.5735160283511
 30
0.0
 11
964.5143498232227
 21
206.5735160283511
 31
0.0
  0
LINE
  5
1B2
330
1F
100
AcDbEntity
  8
0
100
AcDbLine
 10
1032.87059744447
 20
226.5735160283512
 30
0.0
 11
964.5143498232227
 21
226.5735160283511
 31
0.0
  0
LINE
  5
1B3
330
1F
100
AcDbEntity
  8
0
100
AcDbLine
 10
1059.110517255741
 20
204.2632096044906
 30
0.0
 11
1039.98057834406
 21
223.6054554199748
 31
0.0
  0
ARC
  5
1B4
330
1F
100
AcDbEntity
  8
0
100
AcDbCircle
 10
1024.521600027198
 20
196.5735160283511
 30
0.0
 40
10.0
100
AcDbArc
 50
44.68381920192546
 51
90.0
  0
ARC
  5
1B5
330
1F
100
AcDbEntity
  8
0
100
AcDbCircle
 10
1032.87059744447
 20
216.5735160283511
 30
0.0
 40
10.0
100
AcDbArc
 50
44.68381920192572
 51
90.00000000000003
  0
ARC
  5
1B6
330
1F
100
AcDbEntity
  8
0
100
AcDbCircle
 10
1066.22049815533
 20
211.2951489961142
 30
0.0
 40
10.0
100
AcDbArc
 50
224.6838192019255
 51
270.0
  0
ARC
  5
1B7
330
1F
100
AcDbEntity
  8
0
100
AcDbCircle
 10
1057.871500738058
 20
191.2951489961142
 30
0.0
 40
10.0
100
AcDbArc
 50
224.6838192019254
 51
270.0
  0
ARC
  5
1B8
330
1F
100
AcDbEntity
  8
0
100
AcDbCircle
 10
1154.014349823222
 20
211.2951489961142
 30
0.0
 40
10.0
100
AcDbArc
 50
270.0
 51
0.000000000000007
  0
ARC
  5
1B9
330
1F
100
AcDbEntity
  8
0
100
AcDbCircle
 10
1174.014349823222
 20
191.2951489961142
 30
0.0
 40
10.0
100
AcDbArc
 50
270.0
 51
0.000000000000007
  0
LINE
  5
1BA
102
{ACAD_REACTORS
330
234
102
}
330
1F
100
AcDbEntity
  8
0
100
AcDbLine
 10
1184.014349823222
 20
191.2951489961142
 30
0.0
 11
1184.014349823222
 21
619.1384570797655
 31
0.0
  0
LINE
  5
1BB
330
1F
100
AcDbEntity
  8
0
100
AcDbLine
 10
1164.014349823222
 20
211.2951489961142
 30
0.0
 11
1164.014349823222
 21
619.1384570797655
 31
0.0
  0
ARC
  5
1BC
330
1F
100
AcDbEntity
  8
0
100
AcDbCircle
 10
1391.454961901375
 20
576.469200639308
 30
0.0
 40
626.4592007771884
100
AcDbArc
 50
179.5586157764544
 51
215.2887680890454
  0
ARC
  5
1BD
330
1F
100
AcDbEntity
  8
0
100
AcDbCircle
 10
1391.454961901375
 20
576.469200639308
 30
0.0
 40
646.4592007771885
100
AcDbArc
 50
194.2958812178723
 51
215.4523820639105
  0
LINE
  5
1BE
330
1F
100
AcDbEntity
  8
0
100
AcDbLine
 10
884.7782758433888
 20
181.2951489961142
 30
0.0
 11
964.5143498232227
 21
181.2951489961141
 31
0.0
  0
LINE
  5
1BF
330
1F
100
AcDbEntity
  8
0
100
AcDbLine
 10
894.7962679984662
 20
201.2951489961142
 30
0.0
 11
964.5143498232227
 21
201.2951489961142
 31
0.0
  0
ARC
  5
1C1
330
1F
100
AcDbEntity
  8
0
100
AcDbCircle
 10
884.7782758433888
 20
191.2951489961143
 30
0.0
 40
10.0
100
AcDbArc
 50
227.0739506672357
 51
270.0
  0
ARC
  5
1C2
330
1F
100
AcDbEntity
  8
0
100
AcDbCircle
 10
537.5737377450698
 20
576.469200639308
 30
0.0
 40
626.4592007771884
100
AcDbArc
 50
324.7112319109545
 51
0.4413842235455471
  0
ARC
  5
1C3
330
1F
100
AcDbEntity
  8
0
100
AcDbCircle
 10
537.5737377450698
 20
576.469200639308
 30
0.0
 40
646.4592007771885
100
AcDbArc
 50
324.5476179360894
 51
345.7041187821277
  0
LINE
  5
1C4
330
1F
100
AcDbEntity
  8
0
100
AcDbLine
 10
1034.232431647979
 20
201.2951489961142
 30
0.0
 11
964.5143498232227
 21
201.2951489961142
 31
0.0
  0
LINE
  5
1C5
330
1F
100
AcDbEntity
  8
0
100
AcDbLine
 10
1044.250423803056
 20
181.2951489961142
 30
0.0
 11
964.5143498232227
 21
181.2951489961141
 31
0.0
  0
ARC
  5
1C6
330
1F
100
AcDbEntity
  8
0
100
AcDbCircle
 10
1044.250423803056
 20
191.2951489961143
 30
0.0
 40
10.0
100
AcDbArc
 50
270.0
 51
312.9260493327642
  0
LINE
  5
1C8
330
1F
100
AcDbEntity
  8
0
100
AcDbLine
 10
934.3544919098912
 20
778.5022304375464
 30
0.0
 11
934.3544919098913
 21
787.158788223699
 31
0.0
  0
LINE
  5
1C9
330
1F
100
AcDbEntity
  8
0
100
AcDbLine
 10
994.6742077365541
 20
778.5022304375464
 30
0.0
 11
994.674207736554
 21
787.1587882236989
 31
0.0
  0
LINE
  5
1CA
330
1F
100
AcDbEntity
  8
0
100
AcDbLine
 10
934.3544919098913
 20
813.8874571817842
 30
0.0
 11
994.6742077365543
 21
813.8874571817842
 31
0.0
  0
LINE
  5
1CC
330
1F
100
AcDbEntity
  8
0
100
AcDbLine
 10
958.9325046860995
 20
823.2951489961141
 30
0.0
 11
958.9325046860993
 21
813.8874571817842
 31
0.0
  0
LINE
  5
1CD
330
1F
100
AcDbEntity
  8
0
100
AcDbLine
 10
958.9325046860995
 20
823.2951489961141
 30
0.0
 11
964.5143498232227
 21
823.2951489961141
 31
0.0
  0
LINE
  5
1D0
330
1F
100
AcDbEntity
  8
0
100
AcDbLine
 10
970.0961949603462
 20
823.2951489961141
 30
0.0
 11
970.0961949603462
 21
813.8874571817842
 31
0.0
  0
LINE
  5
1D1
330
1F
100
AcDbEntity
  8
0
100
AcDbLine
 10
970.0961949603462
 20
823.2951489961141
 30
0.0
 11
964.5143498232227
 21
823.2951489961141
 31
0.0
  0
LINE
  5
1D4
102
{ACAD_REACTORS
330
2B9
102
}
330
1F
100
AcDbEntity
  8
0
100
AcDbLine
 10
1602.263923866297
 20
823.2951489961141
 30
0.0
 11
1604.050086685134
 21
823.2951489961141
 31
0.0
  0
LINE
  5
1D5
330
1F
100
AcDbEntity
  8
0
100
AcDbLine
 10
1595.365219215486
 20
813.8874571817842
 30
0.0
 11
1623.638011451966
 21
813.887457181784
 31
0.0
  0
LINE
  5
1D6
330
1F
100
AcDbEntity
  8
0
100
AcDbLine
 10
1727.888011451967
 20
780.7951489961143
 30
0.0
 11
1730.388011451966
 21
780.7951489961141
 31
0.0
  0
LINE
  5
1D7
330
1F
100
AcDbEntity
  8
0
100
AcDbLine
 10
1524.388011451966
 20
738.7951489961142
 30
0.0
 11
1722.888011451966
 21
738.7951489961141
 31
0.0
  0
LINE
  5
1D9
102
{ACAD_REACTORS
330
27C
330
2B9
102
}
330
1F
100
AcDbEntity
  8
0
100
AcDbLine
 10
1853.935768589644
 20
181.2951489961142
 30
0.0
 11
1859.888011451967
 21
181.2951489961142
 31
0.0
  0
LINE
  5
1DA
330
1F
100
AcDbEntity
  8
0
100
AcDbLine
 10
1727.888011451966
 20
381.7951489961142
 30
0.0
 11
1730.388011451966
 21
381.7951489961141
 31
0.0
  0
LINE
  5
1DB
330
1F
100
AcDbEntity
  8
0
100
AcDbLine
 10
1853.935768589644
 20
181.2951489961142
 30
0.0
 11
1859.888011451967
 21
181.2951489961142
 31
0.0
  0
LINE
  5
1E1
330
1F
100
AcDbEntity
  8
0
100
AcDbLine
 10
1604.050086685134
 20
823.295148996114
 30
0.0
 11
1602.263923866297
 21
823.2951489961141
 31
0.0
  0
LINE
  5
1E2
102
{ACAD_REACTORS
330
294
102
}
330
1F
100
AcDbEntity
  8
0
100
AcDbLine
 10
1519.388011451966
 20
740.7951489961141
 30
0.0
 11
1519.388011451966
 21
421.7951489961142
 31
0.0
  0
LINE
  5
1E3
102
{ACAD_REACTORS
330
294
102
}
330
1F
100
AcDbEntity
  8
0
100
AcDbLine
 10
1730.388011451966
 20
780.7951489961141
 30
0.0
 11
1730.388011451966
 21
381.7951489961141
 31
0.0
  0
LINE
  5
1E4
330
1F
100
AcDbEntity
  8
0
100
AcDbLine
 10
1524.388011451966
 20
423.7951489961142
 30
0.0
 11
1722.888011451967
 21
423.7951489961142
 31
0.0
  0
LINE
  5
1E5
330
1F
100
AcDbEntity
  8
0
100
AcDbLine
 10
1524.388011451966
 20
740.7951489961141
 30
0.0
 11
1524.388011451966
 21
421.7951489961142
 31
0.0
  0
LINE
  5
1E6
330
1F
100
AcDbEntity
  8
0
100
AcDbLine
 10
1725.388011451966
 20
778.2951489961143
 30
0.0
 11
1725.388011451966
 21
741.2951489961141
 31
0.0
  0
LINE
  5
1EA
330
1F
100
AcDbEntity
  8
0
100
AcDbLine
 10
1519.388011451966
 20
421.7951489961142
 30
0.0
 11
1524.388011451966
 21
421.7951489961142
 31
0.0
  0
LINE
  5
1EB
330
1F
100
AcDbEntity
  8
0
100
AcDbLine
 10
1519.388011451966
 20
740.7951489961141
 30
0.0
 11
1524.388011451966
 21
740.7951489961141
 31
0.0
  0
LINE
  5
1EF
330
1F
100
AcDbEntity
  8
0
100
AcDbLine
 10
1388.899286765592
 20
184.6896185415005
 30
0.0
 11
1519.388011451966
 21
422.4361207162956
 31
0.0
  0
LINE
  5
1F0
330
1F
100
AcDbEntity
  8
0
100
AcDbLine
 10
1393.282480997353
 20
182.2838736824884
 30
0.0
 11
1524.079608567846
 21
420.5922765666082
 31
0.0
  0
LINE
  5
1F1
330
1F
100
AcDbEntity
  8
0
100
AcDbLine
 10
1389.888011451967
 20
181.2951489961143
 30
0.0
 11
1389.888011451967
 21
181.2951489961142
 31
0.0
  0
ARC
  5
1F3
102
{ACAD_REACTORS
330
27C
102
}
330
1F
100
AcDbEntity
  8
0
100
AcDbCircle
 10
1391.090883881473
 20
183.4867461119944
 30
0.0
 40
2.5
100
AcDbArc
 50
241.239529908621
 51
331.2395299086221
  0
ARC
  5
1F4
330
1F
100
AcDbEntity
  8
0
100
AcDbCircle
 10
1391.090883881473
 20
183.4867461119945
 30
0.0
 40
2.5
100
AcDbArc
 50
151.2395299086221
 51
241.2395299086247
  0
LINE
  5
1F5
330
1F
100
AcDbEntity
  8
0
100
AcDbLine
 10
1524.079608567846
 20
420.5922765666082
 30
0.0
 11
1524.73981297822
 21
421.7951489961142
 31
0.0
  0
LINE
  5
1F6
330
1F
100
AcDbEntity
  8
0
100
AcDbLine
 10
1524.73981297822
 20
421.7951489961142
 30
0.0
 11
1525.738744618319
 21
423.7951489961142
 31
0.0
  0
ARC
  5
1F7
330
1F
100
AcDbEntity
  8
0
100
AcDbCircle
 10
1727.888011451967
 20
778.2951489961143
 30
0.0
 40
2.5
100
AcDbArc
 50
90.0
 51
179.9999999999999
  0
ARC
  5
1F8
330
1F
100
AcDbEntity
  8
0
100
AcDbCircle
 10
1722.888011451966
 20
741.2951489961141
 30
0.0
 40
2.5
100
AcDbArc
 50
270.0
 51
0.0
  0
LINE
  5
1FE
330
1F
100
AcDbEntity
  8
0
100
AcDbLine
 10
1725.388011451967
 20
421.2951489961143
 30
0.0
 11
1725.388011451966
 21
384.2951489961142
 31
0.0
  0
ARC
  5
1FF
330
1F
100
AcDbEntity
  8
0
100
AcDbCircle
 10
1722.888011451967
 20
421.2951489961143
 30
0.0
 40
2.5
100
AcDbArc
 50
359.9999999999997
 51
90.0
  0
ARC
  5
200
330
1F
100
AcDbEntity
  8
0
100
AcDbCircle
 10
1727.888011451966
 20
384.2951489961142
 30
0.0
 40
2.5
100
AcDbArc
 50
179.9999999999996
 51
269.9999999999993
  0
LINE
  5
201
330
1F
100
AcDbEntity
  8
0
100
AcDbLine
 10
1725.388011451967
 20
421.2951489961143
 30
0.0
 11
1725.388011451966
 21
741.2951489961141
 31
0.0
  0
LINE
  5
202
330
1F
100
AcDbEntity
  8
0
100
AcDbLine
 10
1859.888011451967
 20
181.2951489961142
 30
0.0
 11
1730.388011451967
 21
381.7951489961142
 31
0.0
  0
LINE
  5
203
330
1F
100
AcDbEntity
  8
0
100
AcDbLine
 10
1853.935768589644
 20
181.2951489961142
 30
0.0
 11
1697.308586544756
 21
423.7951489961142
 31
0.0
  0
LINE
  5
204
330
1F
100
AcDbEntity
  8
0
100
AcDbLine
 10
1725.388011451966
 20
389.5364617374273
 30
0.0
 11
1703.260829407079
 21
423.7951489961142
 31
0.0
  0
LINE
  5
208
330
1F
100
AcDbEntity
  8
0
100
AcDbLine
 10
1853.935768589644
 20
181.2951489961142
 30
0.0
 11
1859.888011451967
 21
181.2951489961142
 31
0.0
  0
LINE
  5
20C
330
1F
100
AcDbEntity
  8
0
100
AcDbLine
 10
1623.638011451966
 20
807.5238179541994
 30
0.0
 11
1592.213920043805
 21
807.5238179541994
 31
0.0
  0
LINE
  5
20D
330
1F
100
AcDbEntity
  8
0
100
AcDbLine
 10
1599.2616716559
 20
740.7951489961142
 30
0.0
 11
1623.638011451966
 21
740.7951489961142
 31
0.0
  0
ARC
  5
20E
330
1F
100
AcDbEntity
  8
0
100
AcDbCircle
 10
1628.624643434316
 20
795.4094834751567
 30
0.0
 40
38.3731400551279
100
AcDbArc
 50
133.3897551475804
 51
139.4359846550006
  0
LINE
  5
20F
330
1F
100
AcDbEntity
  8
0
100
AcDbLine
 10
1599.473341125929
 20
820.3634300851714
 30
0.0
 11
1600.563752434393
 21
813.8874571817842
 31
0.0
  0
LINE
  5
210
330
1F
100
AcDbEntity
  8
0
100
AcDbLine
 10
1604.050086685134
 20
823.2951489961141
 30
0.0
 11
1605.634134934551
 21
813.8874571817842
 31
0.0
  0
LINE
  5
216
330
1F
100
AcDbEntity
  8
0
100
AcDbLine
 10
964.5143498232227
 20
581.2951489961142
 30
0.0
 11
807.0143498232228
 21
581.2951489961142
 31
0.0
  0
LINE
  5
217
102
{ACAD_REACTORS
330
264
102
}
330
1F
100
AcDbEntity
  8
0
100
AcDbLine
 10
964.5143498232227
 20
581.2951489961142
 30
0.0
 11
1122.014349823222
 21
581.2951489961142
 31
0.0
  0
LWPOLYLINE
  5
218
102
{ACAD_REACTORS
330
264
102
}
330
1F
100
AcDbEntity
  8
0
100
AcDbPolyline
 90
        2
 70
     0
 43
0.0
 10
807.0143498232228
 20
581.2951489961142
 10
1122.014349823222
 20
581.2951489961142
 42
-1.123189015570847
  0
LWPOLYLINE
  5
21B
102
{ACAD_REACTORS
330
21C
102
}
330
1F
100
AcDbEntity
  8
0
100
AcDbPolyline
 90
        3
 70
     0
 43
0.0
 10
807.0143498232228
 20
581.2951489961142
 42
0.9999999999999998
 10
1122.014349823222
 20
581.2951489961142
 10
807.0143498232228
 20
581.2951489961142
  0
HATCH
  5
21C
330
1F
100
AcDbEntity
  8
srafy
100
AcDbHatch
 10
0.0
 20
0.0
 30
0.0
210
0.0
220
0.0
230
1.0
  2
NET
 70
     0
 71
     1
 91
        1
 92
        1
 93
        2
 72
     2
 10
964.5143498232227
 20
581.2951489961142
 40
157.5
 50
180.0
 51
360.0
 73
     1
 72
     1
 10
1122.014349823222
 20
581.2951489961142
 11
807.0143498232228
 21
581.2951489961142
 97
        1
330
21B
 75
     0
 76
     1
 52
0.0
 41
5.0
 77
     0
 78
     2
 53
0.0
 43
0.0
 44
0.0
 45
0.0
 46
15.875
 79
     0
 53
90.0
 43
0.0
 44
0.0
 45
-15.875
 46
0.000000000000001
 79
     0
 98
        1
 10
0.0
 20
0.0
  0
DIMENSION
  5
21D
102
{ACAD_XDICTIONARY
360
22A
102
}
102
{ACAD_REACTORS
330
234
102
}
330
1F
100
AcDbEntity
  8
koty
100
AcDbDimension
  2
*D1
 10
1184.014349823222
 20
43.70040953316902
 30
0.0
 11
964.5143498232227
 21
59.95040953316902
 31
0.0
 70
    32
 71
     5
 42
439.0
  3
ISO-25
100
AcDbAlignedDimension
 13
745.0143498232228
 23
191.2951489961142
 33
0.0
 14
1184.014349823222
 24
191.2951489961142
 34
0.0
100
AcDbRotatedDimension
  0
DIMENSION
  5
235
102
{ACAD_XDICTIONARY
360
242
102
}
102
{ACAD_REACTORS
330
24C
102
}
330
1F
100
AcDbEntity
  8
koty
100
AcDbDimension
  2
*D2
 10
678.9575571935231
 20
581.2951489961143
 30
0.0
 11
662.707557193523
 21
381.2951489961143
 31
0.0
 70
    32
 71
     5
 42
400.0
  3
ISO-25
100
AcDbAlignedDimension
 13
755.0143498232228
 23
181.2951489961142
 33
0.0
 14
745.0143498232228
 24
581.2951489961143
 34
0.0
 50
90.0
100
AcDbRotatedDimension
  0
DIMENSION
  5
24D
102
{ACAD_XDICTIONARY
360
25A
102
}
102
{ACAD_REACTORS
330
264
102
}
330
1F
100
AcDbEntity
  8
koty
100
AcDbDimension
  2
*D3
 10
1122.014349823222
 20
873.294233868062
 30
0.0
 11
964.5143498232227
 21
889.544233868062
 31
0.0
 70
    32
 71
     5
 42
315.0
  3
ISO-25
100
AcDbAlignedDimension
 13
807.0143498232228
 23
581.2951489961142
 33
0.0
 14
1122.014349823222
 24
581.2951489961142
 34
0.0
100
AcDbRotatedDimension
  0
DIMENSION
  5
265
102
{ACAD_XDICTIONARY
360
272
102
}
102
{ACAD_REACTORS
330
27C
102
}
330
1F
100
AcDbEntity
  8
koty
100
AcDbDimension
  2
*D4
 10
1859.888011451967
 20
43.70040953316902
 30
0.0
 11
1624.888011451967
 21
59.95040953316902
 31
0.0
 70
    32
 71
     5
 42
469.9999999999997
  3
ISO-25
100
AcDbAlignedDimension
 13
1389.888011451967
 23
181.2951489961142
 33
0.0
 14
1859.888011451967
 24
181.2951489961142
 34
0.0
100
AcDbRotatedDimension
  0
DIMENSION
  5
27D
102
{ACAD_XDICTIONARY
360
28A
102
}
102
{ACAD_REACTORS
330
294
102
}
330
1F
100
AcDbEntity
  8
koty
100
AcDbDimension
  2
*D5
 10
1730.388011451966
 20
873.294233868062
 30
0.0
 11
1624.888011451966
 21
889.544233868062
 31
0.0
 70
    32
 71
     5
 42
211.0
  3
ISO-25
100
AcDbAlignedDimension
 13
1519.388011451966
 23
740.7951489961141
 33
0.0
 14
1730.388011451966
 24
780.7951489961141
 34
0.0
100
AcDbRotatedDimension
  0
LINE
  5
297
330
1F
100
AcDbEntity
  8
0
100
AcDbLine
 10
934.3544919098913
 20
787.158788223699
 30
0.0
 11
934.3544919098913
 21
813.8874571817842
 31
0.0
  0
LINE
  5
298
330
1F
100
AcDbEntity
  8
0
100
AcDbLine
 10
994.6742077365543
 20
787.158788223699
 30
0.0
 11
994.6742077365543
 21
813.8874571817842
 31
0.0
  0
LINE
  5
299
330
1F
100
AcDbEntity
  8
0
100
AcDbLine
 10
1595.365219215486
 20
813.8874571817842
 30
0.0
 11
1623.638011451966
 21
813.8874571817842
 31
0.0
  0
LINE
  5
29A
330
1F
100
AcDbEntity
  8
0
100
AcDbLine
 10
1602.263923866297
 20
823.2951489961141
 30
0.0
 11
1604.050086685134
 21
823.2951489961141
 31
0.0
  0
ARC
  5
29B
330
1F
100
AcDbEntity
  8
0
100
AcDbCircle
 10
1655.264415991837
 20
780.4305912268229
 30
0.0
 40
68.60958864459282
100
AcDbArc
 50
150.8143342973214
 51
217.3617831441655
  0
LINE
  5
29D
330
1F
100
AcDbEntity
  8
0
100
AcDbLine
 10
1651.910803688446
 20
813.8874571817842
 30
0.0
 11
1623.638011451967
 21
813.8874571817842
 31
0.0
  0
ARC
  5
29E
330
1F
100
AcDbEntity
  8
0
100
AcDbCircle
 10
1592.011606912095
 20
780.4305912268229
 30
0.0
 40
68.60958864459282
100
AcDbArc
 50
322.6382168558345
 51
29.18566570267852
  0
LINE
  5
29F
330
1F
100
AcDbEntity
  8
0
100
AcDbLine
 10
1623.638011451967
 20
807.5238179541994
 30
0.0
 11
1655.062102860127
 21
807.5238179541994
 31
0.0
  0
LINE
  5
2A0
330
1F
100
AcDbEntity
  8
0
100
AcDbLine
 10
1648.014351248033
 20
740.7951489961142
 30
0.0
 11
1623.638011451966
 21
740.7951489961142
 31
0.0
  0
DIMENSION
  5
2A2
102
{ACAD_XDICTIONARY
360
2AF
102
}
102
{ACAD_REACTORS
330
2B9
102
}
330
1F
100
AcDbEntity
  8
koty
100
AcDbDimension
  2
*D6
 10
1966.185544803572
 20
823.2951489961141
 30
0.0
 11
1949.935544803572
 21
502.2951489961145
 31
0.0
 70
    32
 71
     5
 42
641.9999999999999
  3
ISO-25
100
AcDbAlignedDimension
 13
1859.888011451967
 23
181.2951489961142
 33
0.0
 14
1604.050086685134
 24
823.2951489961141
 34
0.0
 50
90.0
100
AcDbRotatedDimension
  0
TEXT
  5
2BA
330
1F
100
AcDbEntity
  8
popis
100
AcDbText
 10
969.0299334703322
 20
976.3783821384732
 30
0.0
 40
20.0
  1
PBT/4 315 - mobilní axiální ventilátor
100
AcDbText
  0
ENDSEC
  0
SECTION
  2
OBJECTS
  0
DICTIONARY
  5
C
330
0
100
AcDbDictionary
281
     1
  3
ACAD_GROUP
350
D
  3
ACAD_LAYOUT
350
1A
  3
ACAD_MLINESTYLE
350
17
  3
ACAD_PLOTSETTINGS
350
19
  3
ACAD_PLOTSTYLENAME
350
E
  3
AcDbVariableDictionary
350
2E
  0
DICTIONARY
  5
22A
330
21D
100
AcDbDictionary
280
     1
281
     1
  3
ACAD_DIMASSOC
360
234
  0
DICTIONARY
  5
242
330
235
100
AcDbDictionary
280
     1
281
     1
  3
ACAD_DIMASSOC
360
24C
  0
DICTIONARY
  5
25A
330
24D
100
AcDbDictionary
280
     1
281
     1
  3
ACAD_DIMASSOC
360
264
  0
DICTIONARY
  5
272
330
265
100
AcDbDictionary
280
     1
281
     1
  3
ACAD_DIMASSOC
360
27C
  0
DICTIONARY
  5
28A
330
27D
100
AcDbDictionary
280
     1
281
     1
  3
ACAD_DIMASSOC
360
294
  0
DICTIONARY
  5
2AF
330
2A2
100
AcDbDictionary
280
     1
281
     1
  3
ACAD_DIMASSOC
360
2B9
  0
DICTIONARY
  5
D
102
{ACAD_REACTORS
330
C
102
}
330
C
100
AcDbDictionary
281
     1
  0
DICTIONARY
  5
1A
102
{ACAD_REACTORS
330
C
102
}
330
C
100
AcDbDictionary
281
     1
  3
Model
350
22
  3
Rozvržení1
350
1E
  3
Rozvržení2
350
26
  0
DICTIONARY
  5
17
102
{ACAD_REACTORS
330
C
102
}
330
C
100
AcDbDictionary
281
     1
  3
Standard
350
18
  0
DICTIONARY
  5
19
102
{ACAD_REACTORS
330
C
102
}
330
C
100
AcDbDictionary
281
     1
  0
ACDBDICTIONARYWDFLT
  5
E
102
{ACAD_REACTORS
330
C
102
}
330
C
100
AcDbDictionary
281
     1
  3
Normal
350
F
100
AcDbDictionaryWithDefault
340
F
  0
DICTIONARY
  5
2E
102
{ACAD_REACTORS
330
C
102
}
330
C
100
AcDbDictionary
281
     1
  3
DIMASSOC
350
30
  3
HIDETEXT
350
2F
  0
DIMASSOC
  5
234
102
{ACAD_REACTORS
330
22A
102
}
330
22A
100
AcDbDimAssoc
330
21D
 90
        3
 70
     0
 71
     0
  1
AcDbOsnapPointRef
 72
    13
331
174
 73
     2
 91
        0
 40
0.0
 10
745.0143498232228
 20
191.2951489961142
 30
0.0
 75
     0
  1
AcDbOsnapPointRef
 72
    13
331
1BA
 73
     2
 91
        0
 40
0.0
 10
1184.014349823222
 20
191.2951489961142
 30
0.0
 75
     0
  0
DIMASSOC
  5
24C
102
{ACAD_REACTORS
330
242
102
}
330
242
100
AcDbDimAssoc
330
235
 90
        1
 70
     0
 71
     0
  1
AcDbOsnapPointRef
 72
    13
331
1A1
 73
     2
 91
        0
 40
0.0
 10
755.0143498232228
 20
181.2951489961142
 30
0.0
 75
     0
  0
DIMASSOC
  5
264
102
{ACAD_REACTORS
330
25A
102
}
330
25A
100
AcDbDimAssoc
330
24D
 90
        3
 70
     0
 71
     0
  1
AcDbOsnapPointRef
 72
    13
331
218
 73
     2
 91
        1
 40
0.0
 10
807.0143498232228
 20
581.2951489961142
 30
0.0
 75
     0
  1
AcDbOsnapPointRef
 72
     1
331
217
 73
     2
 91
        0
 40
1.0
 10
1122.014349823222
 20
581.2951489961142
 30
0.0
 75
     0
  0
DIMASSOC
  5
27C
102
{ACAD_REACTORS
330
272
102
}
330
272
100
AcDbDimAssoc
330
265
 90
        3
 70
     0
 71
     0
  1
AcDbOsnapPointRef
 72
    13
331
1F3
 73
     2
 91
        0
 40
4.21042408286878
 10
1389.888011451967
 20
181.2951489961142
 30
0.0
 75
     0
  1
AcDbOsnapPointRef
 72
     1
331
1D9
 73
     2
 91
        0
 40
1.0
 10
1859.888011451967
 20
181.2951489961142
 30
0.0
 75
     0
  0
DIMASSOC
  5
294
102
{ACAD_REACTORS
330
28A
102
}
330
28A
100
AcDbDimAssoc
330
27D
 90
        3
 70
     0
 71
     0
  1
AcDbOsnapPointRef
 72
    13
331
1E2
 73
     2
 91
        0
 40
0.0
 10
1519.388011451966
 20
740.7951489961141
 30
0.0
 75
     0
  1
AcDbOsnapPointRef
 72
    13
331
1E3
 73
     2
 91
        0
 40
0.0
 10
1730.388011451966
 20
780.7951489961141
 30
0.0
 75
     0
  0
DIMASSOC
  5
2B9
102
{ACAD_REACTORS
330
2AF
102
}
330
2AF
100
AcDbDimAssoc
330
2A2
 90
        3
 70
     0
 71
     0
  1
AcDbOsnapPointRef
 72
     1
331
1D9
 73
     2
 91
        0
 40
1.0
 10
1859.888011451967
 20
181.2951489961142
 30
0.0
 75
     0
  1
AcDbOsnapPointRef
 72
     1
331
1D4
 73
     2
 91
        0
 40
1.0
 10
1604.050086685134
 20
823.2951489961141
 30
0.0
 75
     0
  0
LAYOUT
  5
22
102
{ACAD_REACTORS
330
1A
102
}
330
1A
100
AcDbPlotSettings
  1

  2
D:\AutoCAD 2002Cz\plotters\PublishToWeb DWF.pc3
  4

  6

 40
0.0
 41
0.0
 42
0.0
 43
0.0
 44
0.0
 45
0.0
 46
0.0
 47
0.0
 48
0.0
 49
0.0
140
0.0
141
0.0
142
1.0
143
1.0
 70
  1712
 72
     0
 73
     0
 74
     0
  7

 75
     0
147
1.0
148
0.0
149
0.0
100
AcDbLayout
  1
Model
 70
     1
 71
     0
 10
0.0
 20
0.0
 11
12.0
 21
9.0
 12
0.0
 22
0.0
 32
0.0
 14
0.0
 24
0.0
 34
0.0
 15
0.0
 25
0.0
 35
0.0
146
0.0
 13
0.0
 23
0.0
 33
0.0
 16
1.0
 26
0.0
 36
0.0
 17
0.0
 27
1.0
 37
0.0
 76
     0
330
1F
  0
LAYOUT
  5
1E
102
{ACAD_REACTORS
330
1A
102
}
330
1A
100
AcDbPlotSettings
  1

  2
D:\AutoCAD 2002Cz\plotters\PublishToWeb DWF.pc3
  4

  6

 40
0.0
 41
0.0
 42
0.0
 43
0.0
 44
0.0
 45
0.0
 46
0.0
 47
0.0
 48
0.0
 49
0.0
140
0.0
141
0.0
142
1.0
143
1.0
 70
   688
 72
     0
 73
     0
 74
     5
  7

 75
    16
147
1.0
148
0.0
149
0.0
100
AcDbLayout
  1
Rozvržení1
 70
     1
 71
     1
 10
0.0
 20
0.0
 11
420.0
 21
297.0
 12
0.0
 22
0.0
 32
0.0
 14
1.000000000000000E+20
 24
1.000000000000000E+20
 34
1.000000000000000E+20
 15
-1.000000000000000E+20
 25
-1.000000000000000E+20
 35
-1.000000000000000E+20
146
0.0
 13
0.0
 23
0.0
 33
0.0
 16
1.0
 26
0.0
 36
0.0
 17
0.0
 27
1.0
 37
0.0
 76
     0
330
1B
  0
LAYOUT
  5
26
102
{ACAD_REACTORS
330
1A
102
}
330
1A
100
AcDbPlotSettings
  1

  2
D:\AutoCAD 2002Cz\plotters\PublishToWeb DWF.pc3
  4

  6

 40
0.0
 41
0.0
 42
0.0
 43
0.0
 44
0.0
 45
0.0
 46
0.0
 47
0.0
 48
0.0
 49
0.0
140
0.0
141
0.0
142
1.0
143
1.0
 70
   688
 72
     0
 73
     0
 74
     5
  7

 75
    16
147
1.0
148
0.0
149
0.0
100
AcDbLayout
  1
Rozvržení2
 70
     1
 71
     2
 10
0.0
 20
0.0
 11
12.0
 21
9.0
 12
0.0
 22
0.0
 32
0.0
 14
0.0
 24
0.0
 34
0.0
 15
0.0
 25
0.0
 35
0.0
146
0.0
 13
0.0
 23
0.0
 33
0.0
 16
1.0
 26
0.0
 36
0.0
 17
0.0
 27
1.0
 37
0.0
 76
     0
330
23
  0
MLINESTYLE
  5
18
102
{ACAD_REACTORS
330
17
102
}
330
17
100
AcDbMlineStyle
  2
STANDARD
 70
     0
  3

 62
   256
 51
90.0
 52
90.0
 71
     2
 49
0.5
 62
   256
  6
BYLAYER
 49
-0.5
 62
   256
  6
BYLAYER
  0
ACDBPLACEHOLDER
  5
F
102
{ACAD_REACTORS
330
E
102
}
330
E
  0
DICTIONARYVAR
  5
30
102
{ACAD_REACTORS
330
2E
102
}
330
2E
100
DictionaryVariables
280
     0
  1
2
  0
DICTIONARYVAR
  5
2F
102
{ACAD_REACTORS
330
2E
102
}
330
2E
100
DictionaryVariables
280
     0
  1
1
  0
ENDSEC
  0
EOF
