  0
SECTION
  2
HEADER
  9
$ACADVER
  1
AC1014
  9
$ACADMAINTVER
 70
     0
  9
$DWGCODEPAGE
  3
ANSI_1250
  9
$INSBASE
 10
0.0
 20
0.0
 30
0.0
  9
$EXTMIN
 10
-126.545517
 20
-531.684106
 30
0.0
  9
$EXTMAX
 10
1443.974016
 20
607.146268
 30
0.0
  9
$LIMMIN
 10
0.0
 20
0.0
  9
$LIMMAX
 10
420.0
 20
297.0
  9
$ORTHOMODE
 70
     1
  9
$REGENMODE
 70
     1
  9
$FILLMODE
 70
     1
  9
$QTEXTMODE
 70
     0
  9
$MIRRTEXT
 70
     1
  9
$DRAGMODE
 70
     2
  9
$LTSCALE
 40
1.0
  9
$OSMODE
 70
    15
  9
$ATTMODE
 70
     1
  9
$TEXTSIZE
 40
2.5
  9
$TRACEWID
 40
1.0
  9
$TEXTSTYLE
  7
ED2
  9
$CLAYER
  8
0
  9
$CELTYPE
  6
BYLAYER
  9
$CECOLOR
 62
   256
  9
$CELTSCALE
 40
1.0
  9
$DELOBJ
 70
     1
  9
$DISPSILH
 70
     0
  9
$DIMSCALE
 40
1.0
  9
$DIMASZ
 40
25.0
  9
$DIMEXO
 40
0.625
  9
$DIMDLI
 40
3.75
  9
$DIMRND
 40
0.0
  9
$DIMDLE
 40
0.0
  9
$DIMEXE
 40
1.25
  9
$DIMTP
 40
0.0
  9
$DIMTM
 40
0.0
  9
$DIMTXT
 40
25.0
  9
$DIMCEN
 40
2.5
  9
$DIMTSZ
 40
0.0
  9
$DIMTOL
 70
     0
  9
$DIMLIM
 70
     0
  9
$DIMTIH
 70
     0
  9
$DIMTOH
 70
     0
  9
$DIMSE1
 70
     0
  9
$DIMSE2
 70
     0
  9
$DIMTAD
 70
     1
  9
$DIMZIN
 70
     8
  9
$DIMBLK
  1

  9
$DIMASO
 70
     1
  9
$DIMSHO
 70
     1
  9
$DIMPOST
  1

  9
$DIMAPOST
  1

  9
$DIMALT
 70
     0
  9
$DIMALTD
 70
     4
  9
$DIMALTF
 40
0.0394
  9
$DIMLFAC
 40
1.0
  9
$DIMTOFL
 70
     1
  9
$DIMTVP
 40
0.0
  9
$DIMTIX
 70
     0
  9
$DIMSOXD
 70
     0
  9
$DIMSAH
 70
     1
  9
$DIMBLK1
  1
_OPEN
  9
$DIMBLK2
  1
_OPEN
  9
$DIMSTYLE
  2
ED2
  9
$DIMCLRD
 70
     0
  9
$DIMCLRE
 70
     0
  9
$DIMCLRT
 70
     0
  9
$DIMTFAC
 40
1.0
  9
$DIMGAP
 40
5.0
  9
$DIMJUST
 70
     0
  9
$DIMSD1
 70
     0
  9
$DIMSD2
 70
     0
  9
$DIMTOLJ
 70
     1
  9
$DIMTZIN
 70
     8
  9
$DIMALTZ
 70
     0
  9
$DIMALTTZ
 70
     0
  9
$DIMFIT
 70
     3
  9
$DIMUPT
 70
     0
  9
$DIMUNIT
 70
     2
  9
$DIMDEC
 70
     0
  9
$DIMTDEC
 70
     1
  9
$DIMALTU
 70
     8
  9
$DIMALTTD
 70
     4
  9
$DIMTXSTY
  7
ED2
  9
$DIMAUNIT
 70
     0
  9
$LUNITS
 70
     2
  9
$LUPREC
 70
     4
  9
$SKETCHINC
 40
1.0
  9
$FILLETRAD
 40
10.0
  9
$AUNITS
 70
     0
  9
$AUPREC
 70
     0
  9
$MENU
  1
.
  9
$ELEVATION
 40
0.0
  9
$PELEVATION
 40
0.0
  9
$THICKNESS
 40
0.0
  9
$LIMCHECK
 70
     0
  9
$BLIPMODE
 70
     0
  9
$CHAMFERA
 40
10.0
  9
$CHAMFERB
 40
10.0
  9
$CHAMFERC
 40
20.0
  9
$CHAMFERD
 40
0.0
  9
$SKPOLY
 70
     1
  9
$TDCREATE
 40
2451196.643769328
  9
$TDUPDATE
 40
2453315.436086782
  9
$TDINDWG
 40
0.1309631829
  9
$TDUSRTIMER
 40
0.1309631829
  9
$USRTIMER
 70
     1
  9
$ANGBASE
 50
0.0
  9
$ANGDIR
 70
     0
  9
$PDMODE
 70
     3
  9
$PDSIZE
 40
15.0
  9
$PLINEWID
 40
0.0
  9
$COORDS
 70
     1
  9
$SPLFRAME
 70
     0
  9
$SPLINETYPE
 70
     6
  9
$SPLINESEGS
 70
     8
  9
$ATTDIA
 70
     0
  9
$ATTREQ
 70
     1
  9
$HANDLING
 70
     1
  9
$HANDSEED
  5
B1A
  9
$SURFTAB1
 70
     6
  9
$SURFTAB2
 70
     6
  9
$SURFTYPE
 70
     6
  9
$SURFU
 70
     6
  9
$SURFV
 70
     6
  9
$UCSNAME
  2

  9
$UCSORG
 10
1044.835013434384
 20
-473.8987792018146
 30
0.0
  9
$UCSXDIR
 10
1.0
 20
0.0
 30
0.0
  9
$UCSYDIR
 10
0.0
 20
1.0
 30
0.0
  9
$PUCSNAME
  2

  9
$PUCSORG
 10
0.0
 20
0.0
 30
0.0
  9
$PUCSXDIR
 10
1.0
 20
0.0
 30
0.0
  9
$PUCSYDIR
 10
0.0
 20
1.0
 30
0.0
  9
$USERI1
 70
     0
  9
$USERI2
 70
     0
  9
$USERI3
 70
     0
  9
$USERI4
 70
     0
  9
$USERI5
 70
     0
  9
$USERR1
 40
0.0
  9
$USERR2
 40
0.0
  9
$USERR3
 40
0.0
  9
$USERR4
 40
0.0
  9
$USERR5
 40
0.0
  9
$WORLDVIEW
 70
     1
  9
$SHADEDGE
 70
     3
  9
$SHADEDIF
 70
    70
  9
$TILEMODE
 70
     1
  9
$MAXACTVP
 70
    48
  9
$PINSBASE
 10
0.0
 20
0.0
 30
0.0
  9
$PLIMCHECK
 70
     0
  9
$PEXTMIN
 10
1.000000E+20
 20
1.000000E+20
 30
1.000000E+20
  9
$PEXTMAX
 10
-1.000000E+20
 20
-1.000000E+20
 30
-1.000000E+20
  9
$PLIMMIN
 10
0.0
 20
0.0
  9
$PLIMMAX
 10
420.0
 20
297.0
  9
$UNITMODE
 70
     0
  9
$VISRETAIN
 70
     1
  9
$PLINEGEN
 70
     0
  9
$PSLTSCALE
 70
     1
  9
$TREEDEPTH
 70
  3020
  9
$PICKSTYLE
 70
     1
  9
$CMLSTYLE
  2
STANDARD
  9
$CMLJUST
 70
     0
  9
$CMLSCALE
 40
1.0
  9
$PROXYGRAPHICS
 70
     1
  9
$MEASUREMENT
 70
     1
  0
ENDSEC
  0
SECTION
  2
CLASSES
  0
CLASS
  1
DICTIONARYVAR
  2
AcDbDictionaryVar
  3
"AutoCAD"
 90
        0
280
     0
281
     0
  0
CLASS
  1
LWPOLYLINE
  2
AcDbPolyline
  3
"AutoCAD"
 90
        0
280
     0
281
     1
  0
CLASS
  1
HATCH
  2
AcDbHatch
  3
"ACAD_SEDONA"
 90
        0
280
     0
281
     1
  0
ENDSEC
  0
SECTION
  2
TABLES
  0
TABLE
  2
VPORT
  5
8
100
AcDbSymbolTable
 70
     2
  0
VPORT
  5
B19
100
AcDbSymbolTableRecord
100
AcDbViewportTableRecord
  2
*ACTIVE
 70
     0
 10
0.0
 20
0.0
 11
1.0
 21
1.0
 12
674.686439
 22
76.051833
 13
0.0
 23
0.0
 14
10.0
 24
10.0
 15
10.0
 25
10.0
 16
0.0
 26
0.0
 36
1.0
 17
0.0
 27
0.0
 37
0.0
 40
1264.230994
 41
1.523346
 42
50.0
 43
0.0
 44
0.0
 50
0.0
 51
0.0
 71
     0
 72
   100
 73
     1
 74
     1
 75
     0
 76
     0
 77
     0
 78
     0
  0
ENDTAB
  0
TABLE
  2
LTYPE
  5
5
100
AcDbSymbolTable
 70
     4
  0
LTYPE
  5
14
100
AcDbSymbolTableRecord
100
AcDbLinetypeTableRecord
  2
BYBLOCK
 70
     0
  3

 72
    65
 73
     0
 40
0.0
  0
LTYPE
  5
15
100
AcDbSymbolTableRecord
100
AcDbLinetypeTableRecord
  2
BYLAYER
 70
     0
  3

 72
    65
 73
     0
 40
0.0
  0
LTYPE
  5
16
100
AcDbSymbolTableRecord
100
AcDbLinetypeTableRecord
  2
CONTINUOUS
 70
     0
  3
Solid line
 72
    65
 73
     0
 40
0.0
  0
LTYPE
  5
7F
100
AcDbSymbolTableRecord
100
AcDbLinetypeTableRecord
  2
DASHDOT
 70
     0
  3
Dash dot __ . __ . __ . __ . __ . __ . __ . __
 72
    65
 73
     4
 40
25.4
 49
12.7
 74
     0
 49
-6.35
 74
     0
 49
0.0
 74
     0
 49
-6.35
 74
     0
  0
LTYPE
  5
80
100
AcDbSymbolTableRecord
100
AcDbLinetypeTableRecord
  2
DASHED
 70
     0
  3
Dashed __ __ __ __ __ __ __ __ __ __ __ __ __ _
 72
    65
 73
     2
 40
19.05
 49
12.7
 74
     0
 49
-6.35
 74
     0
  0
LTYPE
  5
5AA
100
AcDbSymbolTableRecord
100
AcDbLinetypeTableRecord
  2
DOT
 70
     0
  3
Dot . . . . . . . . . . . . . . . . . . . . . .
 72
    65
 73
     2
 40
6.35
 49
0.0
 74
     0
 49
-6.35
 74
     0
  0
ENDTAB
  0
TABLE
  2
LAYER
  5
2
100
AcDbSymbolTable
 70
     6
  0
LAYER
  5
F
100
AcDbSymbolTableRecord
100
AcDbLayerTableRecord
  2
0
 70
     0
 62
     7
  6
CONTINUOUS
  0
LAYER
  5
9E
100
AcDbSymbolTableRecord
100
AcDbLayerTableRecord
  2
DEFPOINTS
 70
     0
 62
     7
  6
CONTINUOUS
  0
LAYER
  5
377
100
AcDbSymbolTableRecord
100
AcDbLayerTableRecord
  2
V0-OBRYS
 70
     0
 62
    90
  6
CONTINUOUS
  0
LAYER
  5
378
100
AcDbSymbolTableRecord
100
AcDbLayerTableRecord
  2
V0-VYPLNE
 70
     0
 62
    52
  6
CONTINUOUS
  0
LAYER
  5
37A
100
AcDbSymbolTableRecord
100
AcDbLayerTableRecord
  2
V0-NAZVY
 70
     0
 62
   210
  6
CONTINUOUS
  0
LAYER
  5
559
100
AcDbSymbolTableRecord
100
AcDbLayerTableRecord
  2
V0-ZBYTEK
 70
     0
 62
    51
  6
CONTINUOUS
  0
ENDTAB
  0
TABLE
  2
STYLE
  5
3
100
AcDbSymbolTable
 70
     6
  0
STYLE
  5
10
100
AcDbSymbolTableRecord
100
AcDbTextStyleTableRecord
  2
STANDARD
 70
     0
 40
0.0
 41
1.0
 50
0.0
 71
     0
 42
2.5
  3
ISOCP
  4

  0
STYLE
  5
331
100
AcDbSymbolTableRecord
100
AcDbTextStyleTableRecord
  2
ED
 70
     0
 40
20.0
 41
1.0
 50
0.0
 71
     0
 42
2.5
  3
ISOCP.shx
  4

  0
STYLE
  5
5B3
100
AcDbSymbolTableRecord
100
AcDbTextStyleTableRecord
  2
EDVENT
 70
     0
 40
10.0
 41
1.0
 50
0.0
 71
     0
 42
2.5
  3
ISOCP.shx
  4

  0
STYLE
  5
5B4
100
AcDbSymbolTableRecord
100
AcDbTextStyleTableRecord
  2
E
 70
     0
 40
25.0
 41
1.0
 50
0.0
 71
     0
 42
2.5
  3
ISOCP.shx
  4

  0
STYLE
  5
5B5
100
AcDbSymbolTableRecord
100
AcDbTextStyleTableRecord
  2
ED-VENT
 70
     0
 40
25.0
 41
1.0
 50
0.0
 71
     0
 42
2.5
  3
ISOCP.shx
  4

  0
STYLE
  5
881
100
AcDbSymbolTableRecord
100
AcDbTextStyleTableRecord
  2
ED2
 70
     0
 40
25.0
 41
1.0
 50
0.0
 71
     0
 42
2.5
  3
ISOCP.shx
  4

  0
ENDTAB
  0
TABLE
  2
VIEW
  5
6
100
AcDbSymbolTable
 70
     0
  0
ENDTAB
  0
TABLE
  2
UCS
  5
7
100
AcDbSymbolTable
 70
     0
  0
ENDTAB
  0
TABLE
  2
APPID
  5
9
100
AcDbSymbolTable
 70
     1
  0
APPID
  5
11
100
AcDbSymbolTableRecord
100
AcDbRegAppTableRecord
  2
ACAD
 70
     0
  0
ENDTAB
  0
TABLE
  2
DIMSTYLE
  5
A
100
AcDbSymbolTable
 70
     3
  0
DIMSTYLE
105
1D
102
{ACAD_REACTORS
330
A0C
330
A0D
330
A0E
330
A0F
330
A10
102
}
100
AcDbSymbolTableRecord
100
AcDbDimStyleTableRecord
  2
STANDARD
 70
     0
  3

  4

  5

  6
_OPEN
  7
_OPEN
 40
0.0
 41
15.0
 42
0.625
 43
3.75
 44
1.25
 45
0.0
 46
0.0
 47
0.0
 48
0.0
140
15.0
141
2.5
142
0.0
143
0.0394
144
1.0
145
0.0
146
1.0
147
3.0
 71
     0
 72
     0
 73
     0
 74
     0
 75
     0
 76
     0
 77
     1
 78
     8
170
     0
171
     4
172
     1
173
     1
174
     0
175
     0
176
     0
177
     0
178
     0
270
     2
271
     0
272
     1
273
     8
274
     4
340
331
275
     0
280
     0
281
     0
282
     0
283
     1
284
     8
285
     0
286
     0
287
     3
288
     0
  0
DIMSTYLE
105
397
100
AcDbSymbolTableRecord
100
AcDbDimStyleTableRecord
  2
ED
 70
     0
  3

  4

  5

  6
_OPEN
  7
_OPEN
 40
0.0
 41
15.0
 42
0.625
 43
3.75
 44
1.25
 45
0.0
 46
0.0
 47
0.0
 48
0.0
140
15.0
141
2.5
142
0.0
143
0.0394
144
1.0
145
0.0
146
1.0
147
3.0
 71
     0
 72
     0
 73
     0
 74
     0
 75
     0
 76
     0
 77
     1
 78
     8
170
     0
171
     4
172
     1
173
     1
174
     0
175
     0
176
     0
177
     0
178
     0
270
     2
271
     0
272
     1
273
     8
274
     4
340
331
275
     0
280
     0
281
     0
282
     0
283
     1
284
     8
285
     0
286
     0
287
     3
288
     0
  0
DIMSTYLE
105
77C
100
AcDbSymbolTableRecord
100
AcDbDimStyleTableRecord
  2
ED2
 70
     0
  3

  4

  5

  6
_OPEN
  7
_OPEN
 40
0.0
 41
25.0
 42
0.625
 43
3.75
 44
1.25
 45
0.0
 46
0.0
 47
0.0
 48
0.0
140
30.0
141
2.5
142
0.0
143
0.0394
144
1.0
145
0.0
146
1.0
147
5.0
 71
     0
 72
     0
 73
     0
 74
     0
 75
     0
 76
     0
 77
     1
 78
     8
170
     0
171
     4
172
     1
173
     1
174
     0
175
     0
176
     0
177
     0
178
     0
270
     2
271
     0
272
     1
273
     8
274
     4
340
331
275
     0
280
     0
281
     0
282
     0
283
     1
284
     8
285
     0
286
     0
287
     3
288
     0
  0
ENDTAB
  0
TABLE
  2
BLOCK_RECORD
  5
1
100
AcDbSymbolTable
 70
    21
  0
BLOCK_RECORD
  5
1A
100
AcDbSymbolTableRecord
100
AcDbBlockTableRecord
  2
*MODEL_SPACE
  0
BLOCK_RECORD
  5
17
100
AcDbSymbolTableRecord
100
AcDbBlockTableRecord
  2
*PAPER_SPACE
  0
BLOCK_RECORD
  5
90
100
AcDbSymbolTableRecord
100
AcDbBlockTableRecord
  2
_OPEN
  0
BLOCK_RECORD
  5
9B1
100
AcDbSymbolTableRecord
100
AcDbBlockTableRecord
  2
*D16
  0
BLOCK_RECORD
  5
9BD
100
AcDbSymbolTableRecord
100
AcDbBlockTableRecord
  2
*D17
  0
BLOCK_RECORD
  5
9C9
100
AcDbSymbolTableRecord
100
AcDbBlockTableRecord
  2
*D18
  0
BLOCK_RECORD
  5
9D7
100
AcDbSymbolTableRecord
100
AcDbBlockTableRecord
  2
*D19
  0
BLOCK_RECORD
  5
9E3
100
AcDbSymbolTableRecord
100
AcDbBlockTableRecord
  2
*D20
  0
ENDTAB
  0
ENDSEC
  0
SECTION
  2
BLOCKS
  0
BLOCK
  5
1B
100
AcDbEntity
  8
0
100
AcDbBlockBegin
  2
*MODEL_SPACE
 70
     0
 10
0.0
 20
0.0
 30
0.0
  3
*MODEL_SPACE
  1

  0
ENDBLK
  5
1C
100
AcDbEntity
  8
0
100
AcDbBlockEnd
  0
BLOCK
  5
18
100
AcDbEntity
 67
     1
  8
0
100
AcDbBlockBegin
  2
*PAPER_SPACE
 70
     0
 10
0.0
 20
0.0
 30
0.0
  3
*PAPER_SPACE
  1

  0
ENDBLK
  5
19
100
AcDbEntity
 67
     1
  8
0
100
AcDbBlockEnd
  0
BLOCK
  5
91
100
AcDbEntity
  8
0
100
AcDbBlockBegin
  2
_OPEN
 70
     0
 10
0.0
 20
0.0
 30
0.0
  3
_OPEN
  1

  0
LINE
  5
92
100
AcDbEntity
  8
0
  6
BYBLOCK
 62
     0
100
AcDbLine
 10
-1.0
 20
0.166667
 30
0.0
 11
0.0
 21
0.0
 31
0.0
  0
LINE
  5
93
100
AcDbEntity
  8
0
  6
BYBLOCK
 62
     0
100
AcDbLine
 10
0.0
 20
0.0
 30
0.0
 11
-1.0
 21
-0.166667
 31
0.0
  0
LINE
  5
94
100
AcDbEntity
  8
0
  6
BYBLOCK
 62
     0
100
AcDbLine
 10
0.0
 20
0.0
 30
0.0
 11
-1.0
 21
0.0
 31
0.0
  0
ENDBLK
  5
95
100
AcDbEntity
  8
0
100
AcDbBlockEnd
  0
BLOCK
  5
ADE
100
AcDbEntity
  8
0
100
AcDbBlockBegin
  2
*D16
 70
     1
 10
0.0
 20
0.0
 30
0.0
  3
*D16
  1

  0
LINE
  5
ADF
100
AcDbEntity
  8
0
  6
BYBLOCK
 62
     0
100
AcDbLine
 10
-76.545517
 20
430.155088
 30
0.0
 11
-76.545517
 21
579.624341
 31
0.0
  0
LINE
  5
AE0
100
AcDbEntity
  8
0
  6
BYBLOCK
 62
     0
100
AcDbLine
 10
823.454483
 20
430.155088
 30
0.0
 11
823.454483
 21
579.624341
 31
0.0
  0
LINE
  5
AE1
100
AcDbEntity
  8
0
  6
BYBLOCK
 62
     0
100
AcDbLine
 10
-51.545517
 20
578.374341
 30
0.0
 11
798.454483
 21
578.374341
 31
0.0
  0
INSERT
  5
AE2
100
AcDbEntity
  8
0
  6
BYBLOCK
 62
     0
100
AcDbBlockReference
  2
_OPEN
 10
-76.545517
 20
578.374341
 30
0.0
 41
25.0
 42
25.0
 43
25.0
 50
180.0
  0
INSERT
  5
AE3
100
AcDbEntity
  8
0
  6
BYBLOCK
 62
     0
100
AcDbBlockReference
  2
_OPEN
 10
823.454483
 20
578.374341
 30
0.0
 41
25.0
 42
25.0
 43
25.0
  0
MTEXT
  5
AE4
100
AcDbEntity
  8
0
  6
BYBLOCK
 62
     0
100
AcDbMText
 10
377.590819
 20
595.874341
 30
0.0
 40
25.0
 41
0.0
 71
     5
 72
     1
  1
\A1;900
  7
ED2
  0
POINT
  5
AE5
100
AcDbEntity
  8
DEFPOINTS
  6
BYBLOCK
 62
     0
100
AcDbPoint
 10
-76.545517
 20
429.530088
 30
0.0
  0
POINT
  5
AE6
100
AcDbEntity
  8
DEFPOINTS
  6
BYBLOCK
 62
     0
100
AcDbPoint
 10
823.454483
 20
429.530088
 30
0.0
  0
POINT
  5
AE7
100
AcDbEntity
  8
DEFPOINTS
  6
BYBLOCK
 62
     0
100
AcDbPoint
 10
823.454483
 20
578.374341
 30
0.0
  0
ENDBLK
  5
AE8
100
AcDbEntity
  8
0
100
AcDbBlockEnd
  0
BLOCK
  5
B09
100
AcDbEntity
  8
0
100
AcDbBlockBegin
  2
*D17
 70
     1
 10
0.0
 20
0.0
 30
0.0
  3
*D17
  1

  0
LINE
  5
B0A
100
AcDbEntity
  8
0
  6
BYBLOCK
 62
     0
100
AcDbLine
 10
-51.545517
 20
497.655088
 30
0.0
 11
-51.545517
 21
536.004215
 31
0.0
  0
LINE
  5
B0B
100
AcDbEntity
  8
0
  6
BYBLOCK
 62
     0
100
AcDbLine
 10
798.454483
 20
497.655088
 30
0.0
 11
798.454483
 21
536.004215
 31
0.0
  0
LINE
  5
B0C
100
AcDbEntity
  8
0
  6
BYBLOCK
 62
     0
100
AcDbLine
 10
-26.545517
 20
534.754215
 30
0.0
 11
773.454483
 21
534.754215
 31
0.0
  0
INSERT
  5
B0D
100
AcDbEntity
  8
0
  6
BYBLOCK
 62
     0
100
AcDbBlockReference
  2
_OPEN
 10
-51.545517
 20
534.754215
 30
0.0
 41
25.0
 42
25.0
 43
25.0
 50
180.0
  0
INSERT
  5
B0E
100
AcDbEntity
  8
0
  6
BYBLOCK
 62
     0
100
AcDbBlockReference
  2
_OPEN
 10
798.454483
 20
534.754215
 30
0.0
 41
25.0
 42
25.0
 43
25.0
  0
MTEXT
  5
B0F
100
AcDbEntity
  8
0
  6
BYBLOCK
 62
     0
100
AcDbMText
 10
373.454483
 20
552.254215
 30
0.0
 40
25.0
 41
0.0
 71
     5
 72
     1
  1
\A1;850
  7
ED2
  0
POINT
  5
B10
100
AcDbEntity
  8
DEFPOINTS
  6
BYBLOCK
 62
     0
100
AcDbPoint
 10
-51.545517
 20
497.030088
 30
0.0
  0
POINT
  5
B11
100
AcDbEntity
  8
DEFPOINTS
  6
BYBLOCK
 62
     0
100
AcDbPoint
 10
798.454483
 20
497.030088
 30
0.0
  0
POINT
  5
B12
100
AcDbEntity
  8
DEFPOINTS
  6
BYBLOCK
 62
     0
100
AcDbPoint
 10
798.454483
 20
534.754215
 30
0.0
  0
ENDBLK
  5
B13
100
AcDbEntity
  8
0
100
AcDbBlockEnd
  0
BLOCK
  5
A8F
100
AcDbEntity
  8
0
100
AcDbBlockBegin
  2
*D18
 70
     1
 10
0.0
 20
0.0
 30
0.0
  3
*D18
  1

  0
LINE
  5
A90
100
AcDbEntity
  8
0
  6
BYBLOCK
 62
     0
100
AcDbLine
 10
-76.545517
 20
113.905088
 30
0.0
 11
-76.545517
 21
-6.89772
 31
0.0
  0
LINE
  5
A91
100
AcDbEntity
  8
0
  6
BYBLOCK
 62
     0
100
AcDbLine
 10
-51.545517
 20
46.405088
 30
0.0
 11
-51.545517
 21
-6.89772
 31
0.0
  0
LINE
  5
A92
100
AcDbEntity
  8
0
  6
BYBLOCK
 62
     0
100
AcDbLine
 10
-101.545517
 20
-5.64772
 30
0.0
 11
-126.545517
 21
-5.64772
 31
0.0
  0
LINE
  5
A93
100
AcDbEntity
  8
0
  6
BYBLOCK
 62
     0
100
AcDbLine
 10
-26.545517
 20
-5.64772
 30
0.0
 11
37.624859
 21
-5.64772
 31
0.0
  0
LINE
  5
A94
100
AcDbEntity
  8
0
  6
BYBLOCK
 62
     0
100
AcDbLine
 10
-76.545517
 20
-5.64772
 30
0.0
 11
-51.545517
 21
-5.64772
 31
0.0
  0
INSERT
  5
A95
100
AcDbEntity
  8
0
  6
BYBLOCK
 62
     0
100
AcDbBlockReference
  2
_OPEN
 10
-76.545517
 20
-5.64772
 30
0.0
 41
25.0
 42
25.0
 43
25.0
  0
INSERT
  5
A96
100
AcDbEntity
  8
0
  6
BYBLOCK
 62
     0
100
AcDbBlockReference
  2
_OPEN
 10
-51.545517
 20
-5.64772
 30
0.0
 41
25.0
 42
25.0
 43
25.0
 50
180.0
  0
MTEXT
  5
A97
100
AcDbEntity
  8
0
  6
BYBLOCK
 62
     0
100
AcDbMText
 10
18.039671
 20
11.854741
 30
0.0
 40
25.0
 41
0.0
 71
     5
 72
     1
  1
\A1;25
  7
ED2
  0
POINT
  5
A98
100
AcDbEntity
  8
DEFPOINTS
  6
BYBLOCK
 62
     0
100
AcDbPoint
 10
-76.545517
 20
114.530088
 30
0.0
  0
POINT
  5
A99
100
AcDbEntity
  8
DEFPOINTS
  6
BYBLOCK
 62
     0
100
AcDbPoint
 10
-51.545517
 20
47.030088
 30
0.0
  0
POINT
  5
A9A
100
AcDbEntity
  8
DEFPOINTS
  6
BYBLOCK
 62
     0
100
AcDbPoint
 10
-51.545517
 20
-5.64772
 30
0.0
  0
ENDBLK
  5
A9B
100
AcDbEntity
  8
0
100
AcDbBlockEnd
  0
BLOCK
  5
A9C
100
AcDbEntity
  8
0
100
AcDbBlockBegin
  2
*D19
 70
     1
 10
0.0
 20
0.0
 30
0.0
  3
*D19
  1

  0
LINE
  5
A9D
100
AcDbEntity
  8
0
  6
BYBLOCK
 62
     0
100
AcDbLine
 10
824.079483
 20
429.530088
 30
0.0
 11
870.728168
 21
429.530088
 31
0.0
  0
LINE
  5
A9E
100
AcDbEntity
  8
0
  6
BYBLOCK
 62
     0
100
AcDbLine
 10
824.079483
 20
114.530088
 30
0.0
 11
870.728168
 21
114.530088
 31
0.0
  0
LINE
  5
A9F
100
AcDbEntity
  8
0
  6
BYBLOCK
 62
     0
100
AcDbLine
 10
869.478168
 20
404.530088
 30
0.0
 11
869.478168
 21
139.530088
 31
0.0
  0
INSERT
  5
AA0
100
AcDbEntity
  8
0
  6
BYBLOCK
 62
     0
100
AcDbBlockReference
  2
_OPEN
 10
869.478168
 20
429.530088
 30
0.0
 41
25.0
 42
25.0
 43
25.0
 50
90.0
  0
INSERT
  5
AA1
100
AcDbEntity
  8
0
  6
BYBLOCK
 62
     0
100
AcDbBlockReference
  2
_OPEN
 10
869.478168
 20
114.530088
 30
0.0
 41
25.0
 42
25.0
 43
25.0
 50
270.0
  0
MTEXT
  5
AA2
100
AcDbEntity
  8
0
  6
BYBLOCK
 62
     0
100
AcDbMText
 10
851.978168
 20
272.030088
 30
0.0
 40
25.0
 41
0.0
 71
     5
 72
     1
  1
\A1;\U+2205315
  7
ED2
 11
0.0
 21
1.0
 31
0.0
  0
POINT
  5
AA3
100
AcDbEntity
  8
DEFPOINTS
  6
BYBLOCK
 62
     0
100
AcDbPoint
 10
823.454483
 20
429.530088
 30
0.0
  0
POINT
  5
AA4
100
AcDbEntity
  8
DEFPOINTS
  6
BYBLOCK
 62
     0
100
AcDbPoint
 10
823.454483
 20
114.530088
 30
0.0
  0
POINT
  5
AA5
100
AcDbEntity
  8
DEFPOINTS
  6
BYBLOCK
 62
     0
100
AcDbPoint
 10
869.478168
 20
114.530088
 30
0.0
  0
ENDBLK
  5
AA6
100
AcDbEntity
  8
0
100
AcDbBlockEnd
  0
BLOCK
  5
AFE
100
AcDbEntity
  8
0
100
AcDbBlockBegin
  2
*D20
 70
     1
 10
0.0
 20
0.0
 30
0.0
  3
*D20
  1

  0
LINE
  5
AFF
100
AcDbEntity
  8
0
  6
BYBLOCK
 62
     0
100
AcDbLine
 10
799.079483
 20
497.030088
 30
0.0
 11
916.949108
 21
497.030088
 31
0.0
  0
LINE
  5
B00
100
AcDbEntity
  8
0
  6
BYBLOCK
 62
     0
100
AcDbLine
 10
799.079483
 20
47.030088
 30
0.0
 11
916.949108
 21
47.030088
 31
0.0
  0
LINE
  5
B01
100
AcDbEntity
  8
0
  6
BYBLOCK
 62
     0
100
AcDbLine
 10
915.699108
 20
472.030088
 30
0.0
 11
915.699108
 21
72.030088
 31
0.0
  0
INSERT
  5
B02
100
AcDbEntity
  8
0
  6
BYBLOCK
 62
     0
100
AcDbBlockReference
  2
_OPEN
 10
915.699108
 20
497.030088
 30
0.0
 41
25.0
 42
25.0
 43
25.0
 50
90.0
  0
INSERT
  5
B03
100
AcDbEntity
  8
0
  6
BYBLOCK
 62
     0
100
AcDbBlockReference
  2
_OPEN
 10
915.699108
 20
47.030088
 30
0.0
 41
25.0
 42
25.0
 43
25.0
 50
270.0
  0
MTEXT
  5
B04
100
AcDbEntity
  8
0
  6
BYBLOCK
 62
     0
100
AcDbMText
 10
898.199108
 20
272.030088
 30
0.0
 40
25.0
 41
0.0
 71
     5
 72
     1
  1
\A1;\U+2205450
  7
ED2
 11
0.0
 21
1.0
 31
0.0
  0
POINT
  5
B05
100
AcDbEntity
  8
DEFPOINTS
  6
BYBLOCK
 62
     0
100
AcDbPoint
 10
798.454483
 20
497.030088
 30
0.0
  0
POINT
  5
B06
100
AcDbEntity
  8
DEFPOINTS
  6
BYBLOCK
 62
     0
100
AcDbPoint
 10
798.454483
 20
47.030088
 30
0.0
  0
POINT
  5
B07
100
AcDbEntity
  8
DEFPOINTS
  6
BYBLOCK
 62
     0
100
AcDbPoint
 10
915.699108
 20
47.030088
 30
0.0
  0
ENDBLK
  5
B08
100
AcDbEntity
  8
0
100
AcDbBlockEnd
  0
ENDSEC
  0
SECTION
  2
ENTITIES
  0
LINE
  5
9EF
100
AcDbEntity
  8
V0-VYPLNE
  6
DASHDOT
 62
    63
 48
3.0
100
AcDbLine
 10
-92.201237
 20
272.030088
 30
0.0
 11
834.398636
 21
272.030088
 31
0.0
  0
LINE
  5
9F0
100
AcDbEntity
  8
V0-OBRYS
 62
    90
100
AcDbLine
 10
-51.545517
 20
272.030088
 30
0.0
 11
-51.545517
 21
497.030088
 31
0.0
  0
LINE
  5
9F1
100
AcDbEntity
  8
V0-OBRYS
 62
    90
100
AcDbLine
 10
-51.545517
 20
497.030088
 30
0.0
 11
223.454483
 21
497.030088
 31
0.0
  0
LINE
  5
9F2
100
AcDbEntity
  8
V0-OBRYS
 62
    90
100
AcDbLine
 10
-76.545517
 20
272.030088
 30
0.0
 11
-76.545517
 21
429.530088
 31
0.0
  0
LINE
  5
9F3
100
AcDbEntity
  8
V0-OBRYS
 62
    90
100
AcDbLine
 10
-76.545517
 20
429.530088
 30
0.0
 11
-51.545517
 21
429.530088
 31
0.0
  0
LINE
  5
9F4
100
AcDbEntity
  8
V0-OBRYS
 62
    90
100
AcDbLine
 10
-71.542096
 20
272.030088
 30
0.0
 11
-71.542096
 21
432.34162
 31
0.0
  0
LINE
  5
9F5
100
AcDbEntity
  8
V0-OBRYS
 62
    90
100
AcDbLine
 10
-71.542096
 20
432.34162
 30
0.0
 11
-69.376207
 21
432.34162
 31
0.0
  0
LINE
  5
9F6
100
AcDbEntity
  8
V0-OBRYS
 62
    90
100
AcDbLine
 10
-69.376207
 20
432.34162
 30
0.0
 11
-69.376207
 21
272.030088
 31
0.0
  0
LINE
  5
9F7
100
AcDbEntity
  8
V0-OBRYS
 62
    90
100
AcDbLine
 10
-51.545517
 20
47.030088
 30
0.0
 11
223.454483
 21
47.030088
 31
0.0
  0
LINE
  5
9F8
100
AcDbEntity
  8
V0-OBRYS
 62
    90
100
AcDbLine
 10
-51.545517
 20
272.030088
 30
0.0
 11
-51.545517
 21
47.030088
 31
0.0
  0
LINE
  5
9F9
100
AcDbEntity
  8
V0-OBRYS
 62
    90
100
AcDbLine
 10
-76.545517
 20
114.530088
 30
0.0
 11
-51.545517
 21
114.530088
 31
0.0
  0
LINE
  5
9FA
100
AcDbEntity
  8
V0-OBRYS
 62
    90
100
AcDbLine
 10
-69.376207
 20
111.718556
 30
0.0
 11
-69.376207
 21
272.030088
 31
0.0
  0
LINE
  5
9FB
100
AcDbEntity
  8
V0-OBRYS
 62
    90
100
AcDbLine
 10
-71.542096
 20
272.030088
 30
0.0
 11
-71.542096
 21
111.718556
 31
0.0
  0
LINE
  5
9FC
100
AcDbEntity
  8
V0-OBRYS
 62
    90
100
AcDbLine
 10
-76.545517
 20
272.030088
 30
0.0
 11
-76.545517
 21
114.530088
 31
0.0
  0
LINE
  5
9FD
100
AcDbEntity
  8
V0-OBRYS
 62
    90
100
AcDbLine
 10
-71.542096
 20
111.718556
 30
0.0
 11
-69.376207
 21
111.718556
 31
0.0
  0
LINE
  5
9FE
100
AcDbEntity
  8
V0-OBRYS
 62
    90
100
AcDbLine
 10
798.454483
 20
47.030088
 30
0.0
 11
223.454483
 21
47.030088
 31
0.0
  0
LINE
  5
9FF
100
AcDbEntity
  8
V0-OBRYS
 62
    90
100
AcDbLine
 10
798.454483
 20
497.030088
 30
0.0
 11
223.454483
 21
497.030088
 31
0.0
  0
LINE
  5
A00
100
AcDbEntity
  8
V0-OBRYS
 62
    90
100
AcDbLine
 10
823.454483
 20
272.030088
 30
0.0
 11
823.454483
 21
114.530088
 31
0.0
  0
LINE
  5
A01
100
AcDbEntity
  8
V0-OBRYS
 62
    90
100
AcDbLine
 10
818.451062
 20
272.030088
 30
0.0
 11
818.451062
 21
111.718556
 31
0.0
  0
LINE
  5
A02
100
AcDbEntity
  8
V0-OBRYS
 62
    90
100
AcDbLine
 10
816.285173
 20
111.718556
 30
0.0
 11
816.285173
 21
272.030088
 31
0.0
  0
LINE
  5
A03
100
AcDbEntity
  8
V0-OBRYS
 62
    90
100
AcDbLine
 10
798.454483
 20
272.030088
 30
0.0
 11
798.454483
 21
47.030088
 31
0.0
  0
LINE
  5
A04
100
AcDbEntity
  8
V0-OBRYS
 62
    90
100
AcDbLine
 10
823.454483
 20
114.530088
 30
0.0
 11
798.454483
 21
114.530088
 31
0.0
  0
LINE
  5
A05
100
AcDbEntity
  8
V0-OBRYS
 62
    90
100
AcDbLine
 10
818.451062
 20
111.718556
 30
0.0
 11
816.285173
 21
111.718556
 31
0.0
  0
LINE
  5
A06
100
AcDbEntity
  8
V0-OBRYS
 62
    90
100
AcDbLine
 10
798.454483
 20
272.030088
 30
0.0
 11
798.454483
 21
497.030088
 31
0.0
  0
LINE
  5
A07
100
AcDbEntity
  8
V0-OBRYS
 62
    90
100
AcDbLine
 10
823.454483
 20
429.530088
 30
0.0
 11
798.454483
 21
429.530088
 31
0.0
  0
LINE
  5
A08
100
AcDbEntity
  8
V0-OBRYS
 62
    90
100
AcDbLine
 10
816.285173
 20
432.34162
 30
0.0
 11
816.285173
 21
272.030088
 31
0.0
  0
LINE
  5
A09
100
AcDbEntity
  8
V0-OBRYS
 62
    90
100
AcDbLine
 10
818.451062
 20
272.030088
 30
0.0
 11
818.451062
 21
432.34162
 31
0.0
  0
LINE
  5
A0A
100
AcDbEntity
  8
V0-OBRYS
 62
    90
100
AcDbLine
 10
823.454483
 20
272.030088
 30
0.0
 11
823.454483
 21
429.530088
 31
0.0
  0
LINE
  5
A0B
100
AcDbEntity
  8
V0-OBRYS
 62
    90
100
AcDbLine
 10
818.451062
 20
432.34162
 30
0.0
 11
816.285173
 21
432.34162
 31
0.0
  0
DIMENSION
  5
A0C
100
AcDbEntity
  8
V0-VYPLNE
 62
    41
100
AcDbDimension
  2
*D16
 10
823.454483
 20
578.374341
 30
0.0
 11
377.590819
 21
578.374341
 31
0.0
 70
   160
  3
ED2
100
AcDbAlignedDimension
 13
-76.545517
 23
429.530088
 33
0.0
 14
823.454483
 24
429.530088
 34
0.0
100
AcDbRotatedDimension
1001
ACAD
1000
DSTYLE
1002
{
1070
   140
1040
25.0
1070
   340
1005
881
1070
    40
1040
1.0
1002
}
  0
DIMENSION
  5
A0D
100
AcDbEntity
  8
V0-VYPLNE
 62
    41
100
AcDbDimension
  2
*D17
 10
798.454483
 20
534.754215
 30
0.0
 11
373.454483
 21
534.754215
 31
0.0
 70
   160
  3
ED2
100
AcDbAlignedDimension
 13
-51.545517
 23
497.030088
 33
0.0
 14
798.454483
 24
497.030088
 34
0.0
100
AcDbRotatedDimension
1001
ACAD
1000
DSTYLE
1002
{
1070
   140
1040
25.0
1070
   340
1005
881
1070
    40
1040
1.0
1002
}
  0
DIMENSION
  5
A0E
100
AcDbEntity
  8
V0-VYPLNE
 62
    41
100
AcDbDimension
  2
*D18
 10
-51.545517
 20
-5.64772
 30
0.0
 11
18.039671
 21
-5.64772
 31
0.0
 70
   160
  3
ED2
100
AcDbAlignedDimension
 13
-76.545517
 23
114.530088
 33
0.0
 14
-51.545517
 24
47.030088
 34
0.0
100
AcDbRotatedDimension
1001
ACAD
1000
DSTYLE
1002
{
1070
   140
1040
25.0
1070
   340
1005
881
1070
    40
1040
1.0
1002
}
  0
DIMENSION
  5
A0F
100
AcDbEntity
  8
V0-VYPLNE
 62
    41
100
AcDbDimension
  2
*D19
 10
869.478168
 20
114.530088
 30
0.0
 11
869.478168
 21
272.030088
 31
0.0
 70
   160
  1
%%c<>
  3
ED2
100
AcDbAlignedDimension
 13
823.454483
 23
429.530088
 33
0.0
 14
823.454483
 24
114.530088
 34
0.0
 50
90.0
100
AcDbRotatedDimension
1001
ACAD
1000
DSTYLE
1002
{
1070
   140
1040
25.0
1070
   340
1005
881
1070
    40
1040
1.0
1002
}
  0
DIMENSION
  5
A10
100
AcDbEntity
  8
V0-VYPLNE
 62
    41
100
AcDbDimension
  2
*D20
 10
915.699108
 20
47.030088
 30
0.0
 11
915.699108
 21
272.030088
 31
0.0
 70
   160
  1
%%c<>
  3
ED2
100
AcDbAlignedDimension
 13
798.454483
 23
497.030088
 33
0.0
 14
798.454483
 24
47.030088
 34
0.0
 50
90.0
100
AcDbRotatedDimension
1001
ACAD
1000
DSTYLE
1002
{
1070
   140
1040
25.0
1070
   340
1005
881
1070
    40
1040
1.0
1002
}
  0
LINE
  5
A11
100
AcDbEntity
  8
V0-VYPLNE
  6
DASHDOT
 62
    63
 48
3.0
100
AcDbLine
 10
928.797604
 20
272.030088
 30
0.0
 11
1443.974016
 21
272.030088
 31
0.0
  0
LINE
  5
A12
100
AcDbEntity
  8
V0-VYPLNE
  6
DASHDOT
 62
    63
 48
3.0
100
AcDbLine
 10
1189.460596
 20
47.030088
 30
0.0
 11
1189.460596
 21
497.030088
 31
0.0
  0
TEXT
  5
A13
100
AcDbEntity
  8
V0-ZBYTEK
 62
   130
 48
2.0
100
AcDbText
 10
1029.807372
 20
-214.540597
 30
0.0
 40
37.5
  1
TLUMIC HLUKU
 72
     1
 11
1189.276122
 21
-214.540597
 31
0.0
100
AcDbText
  0
TEXT
  5
A14
100
AcDbEntity
  8
V0-ZBYTEK
 62
    51
 48
2.0
100
AcDbText
 10
1011.275952
 20
-288.907686
 30
0.0
 40
25.0
  1
PRO KRUHOVA POTRUBI
 72
     1
 11
1187.588452
 21
-288.907686
 31
0.0
100
AcDbText
  0
TEXT
  5
A15
100
AcDbEntity
  8
V0-NAZVY
 62
   210
100
AcDbText
 10
986.669079
 20
-137.040597
 30
0.0
 40
50.0
  1
MAA-315-900
 72
     1
 11
1189.276122
 21
-137.040597
 31
0.0
100
AcDbText
  0
POINT
  5
A16
100
AcDbEntity
  8
V0-VYPLNE
 62
    52
100
AcDbPoint
 10
-51.545517
 20
272.030088
 30
0.0
  0
POINT
  5
A17
100
AcDbEntity
  8
V0-VYPLNE
 62
    52
100
AcDbPoint
 10
1189.460596
 20
272.030088
 30
0.0
  0
CIRCLE
  5
A18
100
AcDbEntity
  8
V0-OBRYS
 62
    90
100
AcDbCircle
 10
1189.460596
 20
272.030088
 30
0.0
 40
225.0
  0
CIRCLE
  5
A19
100
AcDbEntity
  8
V0-OBRYS
 62
    90
100
AcDbCircle
 10
1189.460596
 20
272.030088
 30
0.0
 40
157.5
  0
CIRCLE
  5
A1A
100
AcDbEntity
  8
V0-OBRYS
 62
    90
100
AcDbCircle
 10
1189.460596
 20
272.030088
 30
0.0
 40
165.0
  0
LINE
  5
A1B
100
AcDbEntity
  8
V0-VYPLNE
  6
DASHDOT
 62
    63
 48
3.0
100
AcDbLine
 10
-92.201237
 20
-306.684106
 30
0.0
 11
834.398636
 21
-306.684106
 31
0.0
  0
LINE
  5
A1C
100
AcDbEntity
  8
V0-OBRYS
 62
    90
100
AcDbLine
 10
798.454483
 20
-81.684106
 30
0.0
 11
223.454483
 21
-81.684106
 31
0.0
  0
LINE
  5
A1D
100
AcDbEntity
  8
V0-OBRYS
 62
    90
100
AcDbLine
 10
798.454483
 20
-531.684106
 30
0.0
 11
223.454483
 21
-531.684106
 31
0.0
  0
LINE
  5
A1E
100
AcDbEntity
  8
V0-OBRYS
 62
    90
100
AcDbLine
 10
-51.545517
 20
-306.684106
 30
0.0
 11
-51.545517
 21
-531.684106
 31
0.0
  0
LINE
  5
A1F
100
AcDbEntity
  8
V0-OBRYS
 62
    90
100
AcDbLine
 10
-51.545517
 20
-531.684106
 30
0.0
 11
223.454483
 21
-531.684106
 31
0.0
  0
LINE
  5
A20
100
AcDbEntity
  8
V0-OBRYS
 62
    90
100
AcDbLine
 10
-51.545517
 20
-81.684106
 30
0.0
 11
223.454483
 21
-81.684106
 31
0.0
  0
LINE
  5
A21
100
AcDbEntity
  8
V0-OBRYS
 62
    90
100
AcDbLine
 10
-51.545517
 20
-306.684106
 30
0.0
 11
-51.545517
 21
-81.684106
 31
0.0
  0
LINE
  5
A22
100
AcDbEntity
  8
V0-OBRYS
 62
    90
100
AcDbLine
 10
-69.376207
 20
-146.372574
 30
0.0
 11
-69.376207
 21
-306.684106
 31
0.0
  0
LINE
  5
A23
100
AcDbEntity
  8
V0-OBRYS
 62
    90
100
AcDbLine
 10
-71.542096
 20
-306.684106
 30
0.0
 11
-71.542096
 21
-146.372574
 31
0.0
  0
LINE
  5
A24
100
AcDbEntity
  8
V0-OBRYS
 62
    90
100
AcDbLine
 10
-76.545517
 20
-306.684106
 30
0.0
 11
-76.545517
 21
-149.184106
 31
0.0
  0
POINT
  5
A25
100
AcDbEntity
  8
V0-VYPLNE
 62
    52
100
AcDbPoint
 10
-51.545517
 20
-306.684106
 30
0.0
  0
LINE
  5
A26
100
AcDbEntity
  8
V0-OBRYS
 62
    90
100
AcDbLine
 10
-76.545517
 20
-306.684106
 30
0.0
 11
-76.545517
 21
-464.184106
 31
0.0
  0
LINE
  5
A27
100
AcDbEntity
  8
V0-OBRYS
 62
    90
100
AcDbLine
 10
-71.542096
 20
-306.684106
 30
0.0
 11
-71.542096
 21
-466.995638
 31
0.0
  0
LINE
  5
A28
100
AcDbEntity
  8
V0-OBRYS
 62
    90
100
AcDbLine
 10
-69.376207
 20
-466.995638
 30
0.0
 11
-69.376207
 21
-306.684106
 31
0.0
  0
LINE
  5
A29
100
AcDbEntity
  8
V0-OBRYS
 62
    90
100
AcDbLine
 10
-76.545517
 20
-464.184106
 30
0.0
 11
-51.545517
 21
-464.184106
 31
0.0
  0
LINE
  5
A2A
100
AcDbEntity
  8
V0-OBRYS
 62
    90
100
AcDbLine
 10
-71.542096
 20
-466.995638
 30
0.0
 11
-69.376207
 21
-466.995638
 31
0.0
  0
LINE
  5
A2B
100
AcDbEntity
  8
V0-OBRYS
 62
    90
100
AcDbLine
 10
-76.545517
 20
-149.184106
 30
0.0
 11
-51.545517
 21
-149.184106
 31
0.0
  0
LINE
  5
A2C
100
AcDbEntity
  8
V0-OBRYS
 62
    90
100
AcDbLine
 10
-71.542096
 20
-146.372574
 30
0.0
 11
-69.376207
 21
-146.372574
 31
0.0
  0
LINE
  5
A2D
100
AcDbEntity
  8
V0-OBRYS
 62
    90
100
AcDbLine
 10
798.454483
 20
-306.684106
 30
0.0
 11
798.454483
 21
-531.684106
 31
0.0
  0
LINE
  5
A2E
100
AcDbEntity
  8
V0-OBRYS
 62
    90
100
AcDbLine
 10
798.454483
 20
-306.684106
 30
0.0
 11
798.454483
 21
-81.684106
 31
0.0
  0
LINE
  5
A2F
100
AcDbEntity
  8
V0-OBRYS
 62
    90
100
AcDbLine
 10
823.454483
 20
-306.684106
 30
0.0
 11
823.454483
 21
-149.184106
 31
0.0
  0
LINE
  5
A30
100
AcDbEntity
  8
V0-OBRYS
 62
    90
100
AcDbLine
 10
818.451062
 20
-306.684106
 30
0.0
 11
818.451062
 21
-146.372574
 31
0.0
  0
LINE
  5
A31
100
AcDbEntity
  8
V0-OBRYS
 62
    90
100
AcDbLine
 10
816.285173
 20
-146.372574
 30
0.0
 11
816.285173
 21
-306.684106
 31
0.0
  0
LINE
  5
A32
100
AcDbEntity
  8
V0-OBRYS
 62
    90
100
AcDbLine
 10
816.285173
 20
-466.995638
 30
0.0
 11
816.285173
 21
-306.684106
 31
0.0
  0
LINE
  5
A33
100
AcDbEntity
  8
V0-OBRYS
 62
    90
100
AcDbLine
 10
818.451062
 20
-306.684106
 30
0.0
 11
818.451062
 21
-466.995638
 31
0.0
  0
LINE
  5
A34
100
AcDbEntity
  8
V0-OBRYS
 62
    90
100
AcDbLine
 10
823.454483
 20
-306.684106
 30
0.0
 11
823.454483
 21
-464.184106
 31
0.0
  0
LINE
  5
A35
100
AcDbEntity
  8
V0-OBRYS
 62
    90
100
AcDbLine
 10
823.454483
 20
-464.184106
 30
0.0
 11
798.454483
 21
-464.184106
 31
0.0
  0
LINE
  5
A36
100
AcDbEntity
  8
V0-OBRYS
 62
    90
100
AcDbLine
 10
818.451062
 20
-466.995638
 30
0.0
 11
816.285173
 21
-466.995638
 31
0.0
  0
LINE
  5
A37
100
AcDbEntity
  8
V0-OBRYS
 62
    90
100
AcDbLine
 10
823.454483
 20
-149.184106
 30
0.0
 11
798.454483
 21
-149.184106
 31
0.0
  0
LINE
  5
A38
100
AcDbEntity
  8
V0-OBRYS
 62
    90
100
AcDbLine
 10
818.451062
 20
-146.372574
 30
0.0
 11
816.285173
 21
-146.372574
 31
0.0
  0
TEXT
  5
A39
100
AcDbEntity
  8
V0-NAZVY
 62
   210
100
AcDbText
 10
1022.821007
 20
554.498221
 30
0.0
 40
40.0
  1
MAA-315-900
 72
     1
 11
1184.906642
 21
554.498221
 31
0.0
100
AcDbText
  0
TEXT
  5
A3A
100
AcDbEntity
  8
V0-NAZVY
 62
   210
100
AcDbText
 10
209.222967
 20
338.737791
 30
0.0
 40
40.0
  1
MAA-315-900
 72
     1
 11
371.308602
 21
338.737791
 31
0.0
100
AcDbText
  0
TEXT
  5
A3B
100
AcDbEntity
  8
V0-NAZVY
 62
   210
100
AcDbText
 10
219.127457
 20
-290.512798
 30
0.0
 40
40.0
  1
MAA-315-900
 72
     1
 11
381.213092
 21
-290.512798
 31
0.0
100
AcDbText
  0
LINE
  5
A3C
100
AcDbEntity
  8
V0-VYPLNE
  6
DASHED
 62
    56
 48
3.0
100
AcDbLine
 10
-49.501707
 20
440.738163
 30
0.0
 11
798.509545
 21
440.738163
 31
0.0
  0
LINE
  5
A3D
100
AcDbEntity
  8
V0-VYPLNE
  6
DASHED
 62
    56
 48
3.0
100
AcDbLine
 10
-49.501707
 20
103.322013
 30
0.0
 11
798.509545
 21
103.322013
 31
0.0
  0
LINE
  5
A3E
100
AcDbEntity
  8
V0-VYPLNE
  6
DASHED
 62
    56
 48
3.0
100
AcDbLine
 10
-49.501707
 20
-137.976031
 30
0.0
 11
798.509545
 21
-137.976031
 31
0.0
  0
LINE
  5
A3F
100
AcDbEntity
  8
V0-VYPLNE
  6
DASHED
 62
    56
 48
3.0
100
AcDbLine
 10
-49.501707
 20
-475.392181
 30
0.0
 11
798.509545
 21
-475.392181
 31
0.0
  0
VIEWPORT
  5
22
100
AcDbEntity
 67
     1
  8
0
100
AcDbViewport
 10
261.517699
 20
148.5
 30
0.0
 40
523.035398
 41
297.0
 68
    -1
 69
     1
1001
ACAD
1000
MVIEW
1002
{
1070
    16
1010
0.0
1020
0.0
1030
0.0
1010
0.0
1020
0.0
1030
1.0
1040
0.0
1040
297.0
1040
261.517699
1040
148.5
1040
50.0
1040
0.0
1040
0.0
1070
     0
1070
   100
1070
     1
1070
     1
1070
     0
1070
     0
1070
     0
1070
     0
1040
0.0
1040
0.0
1040
0.0
1040
1.0
1040
1.0
1040
10.0
1040
10.0
1070
     0
1002
{
1002
}
1002
}
  0
ENDSEC
  0
SECTION
  2
OBJECTS
  0
DICTIONARY
  5
C
100
AcDbDictionary
  3
ACAD_GROUP
350
D
  3
ACAD_MLINESTYLE
350
E
  3
ACDBVARIABLEDICTIONARY
350
5D
  0
DICTIONARY
  5
D
102
{ACAD_REACTORS
330
C
102
}
100
AcDbDictionary
  0
DICTIONARY
  5
E
102
{ACAD_REACTORS
330
C
102
}
100
AcDbDictionary
  3
STANDARD
350
13
  0
DICTIONARY
  5
5D
102
{ACAD_REACTORS
330
C
102
}
100
AcDbDictionary
  3
DIMADEC
350
5E
  3
SORTENTS
350
3D8
  0
MLINESTYLE
  5
13
102
{ACAD_REACTORS
330
E
102
}
100
AcDbMlineStyle
  2
STANDARD
 70
     0
  3

 62
     0
 51
90.0
 52
90.0
 71
     2
 49
0.5
 62
   256
  6
BYLAYER
 49
-0.5
 62
   256
  6
BYLAYER
  0
DICTIONARYVAR
  5
5E
102
{ACAD_REACTORS
330
5D
102
}
100
DictionaryVariables
280
     0
  1
0
  0
DICTIONARYVAR
  5
3D8
102
{ACAD_REACTORS
330
5D
102
}
100
DictionaryVariables
280
     0
  1
96
  0
ENDSEC
  0
EOF
