  0
SECTION
  2
HEADER
  9
$ACADVER
  1
AC1014
  9
$ACADMAINTVER
 70
     0
  9
$DWGCODEPAGE
  3
ANSI_1250
  9
$INSBASE
 10
0.0
 20
0.0
 30
0.0
  9
$EXTMIN
 10
83.080327
 20
-1023.271702
 30
0.0
  9
$EXTMAX
 10
1423.894692
 20
481.495387
 30
0.0
  9
$LIMMIN
 10
-1040.805314
 20
-347.068924
  9
$LIMMAX
 10
643.686187
 20
495.293187
  9
$ORTHOMODE
 70
     1
  9
$REGENMODE
 70
     1
  9
$FILLMODE
 70
     1
  9
$QTEXTMODE
 70
     0
  9
$MIRRTEXT
 70
     1
  9
$DRAGMODE
 70
     2
  9
$LTSCALE
 40
15.0
  9
$OSMODE
 70
  1023
  9
$ATTMODE
 70
     1
  9
$TEXTSIZE
 40
15.0
  9
$TRACEWID
 40
1.0
  9
$TEXTSTYLE
  7
ED10
  9
$CLAYER
  8
V0-OBRYS
  9
$CELTYPE
  6
BYLAYER
  9
$CECOLOR
 62
   256
  9
$CELTSCALE
 40
1.0
  9
$DELOBJ
 70
     1
  9
$DISPSILH
 70
     0
  9
$DIMSCALE
 40
0.0
  9
$DIMASZ
 40
35.0
  9
$DIMEXO
 40
1.0
  9
$DIMDLI
 40
3.75
  9
$DIMRND
 40
0.0
  9
$DIMDLE
 40
0.0
  9
$DIMEXE
 40
1.25
  9
$DIMTP
 40
0.0
  9
$DIMTM
 40
0.0
  9
$DIMTXT
 40
40.0
  9
$DIMCEN
 40
3.0
  9
$DIMTSZ
 40
0.0
  9
$DIMTOL
 70
     0
  9
$DIMLIM
 70
     0
  9
$DIMTIH
 70
     0
  9
$DIMTOH
 70
     0
  9
$DIMSE1
 70
     0
  9
$DIMSE2
 70
     0
  9
$DIMTAD
 70
     1
  9
$DIMZIN
 70
     8
  9
$DIMBLK
  1

  9
$DIMASO
 70
     1
  9
$DIMSHO
 70
     1
  9
$DIMPOST
  1

  9
$DIMAPOST
  1

  9
$DIMALT
 70
     0
  9
$DIMALTD
 70
     4
  9
$DIMALTF
 40
0.0394
  9
$DIMLFAC
 40
1.0
  9
$DIMTOFL
 70
     1
  9
$DIMTVP
 40
0.0
  9
$DIMTIX
 70
     0
  9
$DIMSOXD
 70
     0
  9
$DIMSAH
 70
     1
  9
$DIMBLK1
  1
_OPEN
  9
$DIMBLK2
  1
_OPEN
  9
$DIMSTYLE
  2
ED40
  9
$DIMCLRD
 70
     1
  9
$DIMCLRE
 70
     1
  9
$DIMCLRT
 70
     1
  9
$DIMTFAC
 40
1.0
  9
$DIMGAP
 40
3.0
  9
$DIMJUST
 70
     0
  9
$DIMSD1
 70
     0
  9
$DIMSD2
 70
     0
  9
$DIMTOLJ
 70
     1
  9
$DIMTZIN
 70
     8
  9
$DIMALTZ
 70
     0
  9
$DIMALTTZ
 70
     0
  9
$DIMFIT
 70
     3
  9
$DIMUPT
 70
     0
  9
$DIMUNIT
 70
     2
  9
$DIMDEC
 70
     0
  9
$DIMTDEC
 70
     1
  9
$DIMALTU
 70
     8
  9
$DIMALTTD
 70
     4
  9
$DIMTXSTY
  7
ED40
  9
$DIMAUNIT
 70
     0
  9
$LUNITS
 70
     2
  9
$LUPREC
 70
     4
  9
$SKETCHINC
 40
1.0
  9
$FILLETRAD
 40
30.0
  9
$AUNITS
 70
     0
  9
$AUPREC
 70
     0
  9
$MENU
  1
.
  9
$ELEVATION
 40
0.0
  9
$PELEVATION
 40
0.0
  9
$THICKNESS
 40
0.0
  9
$LIMCHECK
 70
     0
  9
$BLIPMODE
 70
     1
  9
$CHAMFERA
 40
10.0
  9
$CHAMFERB
 40
10.0
  9
$CHAMFERC
 40
20.0
  9
$CHAMFERD
 40
0.0
  9
$SKPOLY
 70
     0
  9
$TDCREATE
 40
2450763.421427893
  9
$TDUPDATE
 40
2452962.453120601
  9
$TDINDWG
 40
1.4216416667
  9
$TDUSRTIMER
 40
1.4216416667
  9
$USRTIMER
 70
     1
  9
$ANGBASE
 50
0.0
  9
$ANGDIR
 70
     0
  9
$PDMODE
 70
     3
  9
$PDSIZE
 40
15.0
  9
$PLINEWID
 40
0.0
  9
$COORDS
 70
     1
  9
$SPLFRAME
 70
     0
  9
$SPLINETYPE
 70
     6
  9
$SPLINESEGS
 70
     8
  9
$ATTDIA
 70
     0
  9
$ATTREQ
 70
     1
  9
$HANDLING
 70
     1
  9
$HANDSEED
  5
DE2
  9
$SURFTAB1
 70
     6
  9
$SURFTAB2
 70
     6
  9
$SURFTYPE
 70
     6
  9
$SURFU
 70
     6
  9
$SURFV
 70
     6
  9
$UCSNAME
  2

  9
$UCSORG
 10
0.0
 20
0.0
 30
0.0
  9
$UCSXDIR
 10
1.0
 20
0.0
 30
0.0
  9
$UCSYDIR
 10
0.0
 20
1.0
 30
0.0
  9
$PUCSNAME
  2

  9
$PUCSORG
 10
0.0
 20
0.0
 30
0.0
  9
$PUCSXDIR
 10
1.0
 20
0.0
 30
0.0
  9
$PUCSYDIR
 10
0.0
 20
1.0
 30
0.0
  9
$USERI1
 70
     0
  9
$USERI2
 70
     0
  9
$USERI3
 70
     2
  9
$USERI4
 70
     2
  9
$USERI5
 70
     6
  9
$USERR1
 40
281.0
  9
$USERR2
 40
321.0
  9
$USERR3
 40
0.0
  9
$USERR4
 40
0.0
  9
$USERR5
 40
0.0
  9
$WORLDVIEW
 70
     1
  9
$SHADEDGE
 70
     3
  9
$SHADEDIF
 70
    70
  9
$TILEMODE
 70
     1
  9
$MAXACTVP
 70
    16
  9
$PINSBASE
 10
0.0
 20
0.0
 30
0.0
  9
$PLIMCHECK
 70
     0
  9
$PEXTMIN
 10
1.000000E+20
 20
1.000000E+20
 30
1.000000E+20
  9
$PEXTMAX
 10
-1.000000E+20
 20
-1.000000E+20
 30
-1.000000E+20
  9
$PLIMMIN
 10
0.0
 20
0.0
  9
$PLIMMAX
 10
420.0
 20
297.0
  9
$UNITMODE
 70
     0
  9
$VISRETAIN
 70
     0
  9
$PLINEGEN
 70
     0
  9
$PSLTSCALE
 70
     0
  9
$TREEDEPTH
 70
  3020
  9
$PICKSTYLE
 70
     1
  9
$CMLSTYLE
  2
STANDARD
  9
$CMLJUST
 70
     0
  9
$CMLSCALE
 40
10.0
  9
$PROXYGRAPHICS
 70
     1
  9
$MEASUREMENT
 70
     0
  0
ENDSEC
  0
SECTION
  2
CLASSES
  0
CLASS
  1
LWPOLYLINE
  2
AcDbPolyline
  3
"AutoCAD"
 90
        0
280
     0
281
     1
  0
CLASS
  1
DICTIONARYVAR
  2
AcDbDictionaryVar
  3
"AutoCAD"
 90
        0
280
     0
281
     0
  0
CLASS
  1
HATCH
  2
AcDbHatch
  3
"ACAD_SEDONA"
 90
        0
280
     0
281
     1
  0
ENDSEC
  0
SECTION
  2
TABLES
  0
TABLE
  2
VPORT
  5
12
100
AcDbSymbolTable
 70
     2
  0
VPORT
  5
DE1
100
AcDbSymbolTableRecord
100
AcDbViewportTableRecord
  2
*ACTIVE
 70
     0
 10
0.0
 20
0.0
 11
1.0
 21
1.0
 12
795.582229
 22
-292.512702
 13
0.0
 23
0.0
 14
1.0
 24
1.0
 15
5.0
 25
5.0
 16
0.0
 26
0.0
 36
1.0
 17
0.0
 27
0.0
 37
0.0
 40
1529.6815
 41
1.685225
 42
50.0
 43
0.0
 44
0.0
 50
0.0
 51
0.0
 71
     0
 72
   100
 73
     1
 74
     0
 75
     0
 76
     1
 77
     0
 78
     0
  0
ENDTAB
  0
TABLE
  2
LTYPE
  5
D
100
AcDbSymbolTable
 70
    46
  0
LTYPE
  5
E
100
AcDbSymbolTableRecord
100
AcDbLinetypeTableRecord
  2
BYBLOCK
 70
     0
  3

 72
    65
 73
     0
 40
0.0
  0
LTYPE
  5
F
100
AcDbSymbolTableRecord
100
AcDbLinetypeTableRecord
  2
BYLAYER
 70
     0
  3

 72
    65
 73
     0
 40
0.0
  0
LTYPE
  5
5
100
AcDbSymbolTableRecord
100
AcDbLinetypeTableRecord
  2
CONTINUOUS
 70
     0
  3
Solid line
 72
    65
 73
     0
 40
0.0
  0
LTYPE
  5
50
100
AcDbSymbolTableRecord
100
AcDbLinetypeTableRecord
  2
DASHDOT
 70
     0
  3
__ . __ . __ . __ . __ . __ . __ . __ . __ . __
 72
    65
 73
     4
 40
1.0
 49
0.5
 74
     0
 49
-0.25
 74
     0
 49
0.0
 74
     0
 49
-0.25
 74
     0
  0
LTYPE
  5
2C7
100
AcDbSymbolTableRecord
100
AcDbLinetypeTableRecord
  2
DASHED
 70
     0
  3
Dashed __ __ __ __ __ __ __ __ __ __ __ __ __ _
 72
    65
 73
     2
 40
19.05
 49
12.7
 74
     0
 49
-6.35
 74
     0
  0
LTYPE
  5
2C8
100
AcDbSymbolTableRecord
100
AcDbLinetypeTableRecord
  2
DOT2
 70
     0
  3
...............................................
 72
    65
 73
     2
 40
0.125
 49
0.0
 74
     0
 49
-0.125
 74
     0
  0
LTYPE
  5
2C9
100
AcDbSymbolTableRecord
100
AcDbLinetypeTableRecord
  2
ACAD_ISO02W100
 70
     0
  3
ISO dash __ __ __ __ __ __ __ __ __ __ __ __ __
 72
    65
 73
     2
 40
15.0
 49
12.0
 74
     0
 49
-3.0
 74
     0
  0
LTYPE
  5
2CA
100
AcDbSymbolTableRecord
100
AcDbLinetypeTableRecord
  2
ACAD_ISO03W100
 70
     0
  3
ISO dash space __    __    __    __    __    __
 72
    65
 73
     2
 40
30.0
 49
12.0
 74
     0
 49
-18.0
 74
     0
  0
LTYPE
  5
2CB
100
AcDbSymbolTableRecord
100
AcDbLinetypeTableRecord
  2
ACAD_ISO04W100
 70
     0
  3
ISO long-dash dot ____ . ____ . ____ . ____ . _
 72
    65
 73
     4
 40
30.5
 49
24.0
 74
     0
 49
-3.0
 74
     0
 49
0.5
 74
     0
 49
-3.0
 74
     0
  0
LTYPE
  5
2CC
100
AcDbSymbolTableRecord
100
AcDbLinetypeTableRecord
  2
ACAD_ISO05W100
 70
     0
  3
ISO long-dash double-dot ____ .. ____ .. ____ .
 72
    65
 73
     6
 40
34.0
 49
24.0
 74
     0
 49
-3.0
 74
     0
 49
0.5
 74
     0
 49
-3.0
 74
     0
 49
0.5
 74
     0
 49
-3.0
 74
     0
  0
LTYPE
  5
2CD
100
AcDbSymbolTableRecord
100
AcDbLinetypeTableRecord
  2
ACAD_ISO06W100
 70
     0
  3
ISO long-dash triple-dot ____ ... ____ ... ____
 72
    65
 73
     8
 40
37.5
 49
24.0
 74
     0
 49
-3.0
 74
     0
 49
0.5
 74
     0
 49
-3.0
 74
     0
 49
0.5
 74
     0
 49
-3.0
 74
     0
 49
0.5
 74
     0
 49
-3.0
 74
     0
  0
LTYPE
  5
2CE
100
AcDbSymbolTableRecord
100
AcDbLinetypeTableRecord
  2
ACAD_ISO07W100
 70
     0
  3
ISO dot . . . . . . . . . . . . . . . . . . . .
 72
    65
 73
     2
 40
3.5
 49
0.5
 74
     0
 49
-3.0
 74
     0
  0
LTYPE
  5
2CF
100
AcDbSymbolTableRecord
100
AcDbLinetypeTableRecord
  2
ACAD_ISO08W100
 70
     0
  3
ISO long-dash short-dash ____ __ ____ __ ____ _
 72
    65
 73
     4
 40
36.0
 49
24.0
 74
     0
 49
-3.0
 74
     0
 49
6.0
 74
     0
 49
-3.0
 74
     0
  0
LTYPE
  5
2D0
100
AcDbSymbolTableRecord
100
AcDbLinetypeTableRecord
  2
ACAD_ISO09W100
 70
     0
  3
ISO long-dash double-short-dash ____ __ __ ____
 72
    65
 73
     6
 40
45.0
 49
24.0
 74
     0
 49
-3.0
 74
     0
 49
6.0
 74
     0
 49
-3.0
 74
     0
 49
6.0
 74
     0
 49
-3.0
 74
     0
  0
LTYPE
  5
2D1
100
AcDbSymbolTableRecord
100
AcDbLinetypeTableRecord
  2
ACAD_ISO10W100
 70
     0
  3
ISO dash dot __ . __ . __ . __ . __ . __ . __ .
 72
    65
 73
     4
 40
18.5
 49
12.0
 74
     0
 49
-3.0
 74
     0
 49
0.5
 74
     0
 49
-3.0
 74
     0
  0
LTYPE
  5
2D2
100
AcDbSymbolTableRecord
100
AcDbLinetypeTableRecord
  2
ACAD_ISO11W100
 70
     0
  3
ISO double-dash dot __ __ . __ __ . __ __ . __ 
 72
    65
 73
     6
 40
33.5
 49
12.0
 74
     0
 49
-3.0
 74
     0
 49
12.0
 74
     0
 49
-3.0
 74
     0
 49
0.5
 74
     0
 49
-3.0
 74
     0
  0
LTYPE
  5
2D3
100
AcDbSymbolTableRecord
100
AcDbLinetypeTableRecord
  2
ACAD_ISO12W100
 70
     0
  3
ISO dash double-dot __ . . __ . . __ . . __ . .
 72
    65
 73
     6
 40
22.0
 49
12.0
 74
     0
 49
-3.0
 74
     0
 49
0.5
 74
     0
 49
-3.0
 74
     0
 49
0.5
 74
     0
 49
-3.0
 74
     0
  0
LTYPE
  5
2D4
100
AcDbSymbolTableRecord
100
AcDbLinetypeTableRecord
  2
ACAD_ISO13W100
 70
     0
  3
ISO double-dash double-dot __ __ . . __ __ . . 
 72
    65
 73
     8
 40
37.0
 49
12.0
 74
     0
 49
-3.0
 74
     0
 49
12.0
 74
     0
 49
-3.0
 74
     0
 49
0.5
 74
     0
 49
-3.0
 74
     0
 49
0.5
 74
     0
 49
-3.0
 74
     0
  0
LTYPE
  5
2D5
100
AcDbSymbolTableRecord
100
AcDbLinetypeTableRecord
  2
ACAD_ISO14W100
 70
     0
  3
ISO dash triple-dot __ . . . __ . . . __ . . . 
 72
    65
 73
     8
 40
25.5
 49
12.0
 74
     0
 49
-3.0
 74
     0
 49
0.5
 74
     0
 49
-3.0
 74
     0
 49
0.5
 74
     0
 49
-3.0
 74
     0
 49
0.5
 74
     0
 49
-3.0
 74
     0
  0
LTYPE
  5
2D6
100
AcDbSymbolTableRecord
100
AcDbLinetypeTableRecord
  2
ACAD_ISO15W100
 70
     0
  3
ISO double-dash triple-dot __ __ . . . __ __ . 
 72
    65
 73
    10
 40
40.5
 49
12.0
 74
     0
 49
-3.0
 74
     0
 49
12.0
 74
     0
 49
-3.0
 74
     0
 49
0.5
 74
     0
 49
-3.0
 74
     0
 49
0.5
 74
     0
 49
-3.0
 74
     0
 49
0.5
 74
     0
 49
-3.0
 74
     0
  0
LTYPE
  5
2D7
100
AcDbSymbolTableRecord
100
AcDbLinetypeTableRecord
  2
BATTING
 70
     0
  3
Batting SSSSSSSSSSSSSSSSSSSSSSSSSSSSSSSSSSSSSSS
 72
    65
 73
     4
 40
0.4001
 49
0.0001
 74
     0
 49
-0.1
 74
     4
 75
   134
340
2F7
 46
0.1
 50
0.0
 44
-0.1
 45
0.0
 49
-0.2
 74
     4
 75
   134
340
2F7
 46
0.1
 50
180.0
 44
0.1
 45
0.0
 49
-0.1
 74
     0
  0
LTYPE
  5
2D8
100
AcDbSymbolTableRecord
100
AcDbLinetypeTableRecord
  2
BORDER
 70
     0
  3
Border __ __ . __ __ . __ __ . __ __ . __ __ .
 72
    65
 73
     6
 40
1.75
 49
0.5
 74
     0
 49
-0.25
 74
     0
 49
0.5
 74
     0
 49
-0.25
 74
     0
 49
0.0
 74
     0
 49
-0.25
 74
     0
  0
LTYPE
  5
2D9
100
AcDbSymbolTableRecord
100
AcDbLinetypeTableRecord
  2
BORDER2
 70
     0
  3
Border (.5x) __.__.__.__.__.__.__.__.__.__.__.
 72
    65
 73
     6
 40
0.875
 49
0.25
 74
     0
 49
-0.125
 74
     0
 49
0.25
 74
     0
 49
-0.125
 74
     0
 49
0.0
 74
     0
 49
-0.125
 74
     0
  0
LTYPE
  5
2DA
100
AcDbSymbolTableRecord
100
AcDbLinetypeTableRecord
  2
BORDERX2
 70
     0
  3
Border (2x) ____  ____  .  ____  ____  .  ___
 72
    65
 73
     6
 40
3.5
 49
1.0
 74
     0
 49
-0.5
 74
     0
 49
1.0
 74
     0
 49
-0.5
 74
     0
 49
0.0
 74
     0
 49
-0.5
 74
     0
  0
LTYPE
  5
2DB
100
AcDbSymbolTableRecord
100
AcDbLinetypeTableRecord
  2
CENTER
 70
     0
  3
Center ____ _ ____ _ ____ _ ____ _ ____ _ ____
 72
    65
 73
     4
 40
2.0
 49
1.25
 74
     0
 49
-0.25
 74
     0
 49
0.25
 74
     0
 49
-0.25
 74
     0
  0
LTYPE
  5
2DC
100
AcDbSymbolTableRecord
100
AcDbLinetypeTableRecord
  2
CENTER2
 70
     0
  3
Center (.5x) ___ _ ___ _ ___ _ ___ _ ___ _ ___
 72
    65
 73
     4
 40
1.125
 49
0.75
 74
     0
 49
-0.125
 74
     0
 49
0.125
 74
     0
 49
-0.125
 74
     0
  0
LTYPE
  5
2DD
100
AcDbSymbolTableRecord
100
AcDbLinetypeTableRecord
  2
CENTERX2
 70
     0
  3
Center (2x) ________  __  ________  __  _____
 72
    65
 73
     4
 40
4.0
 49
2.5
 74
     0
 49
-0.5
 74
     0
 49
0.5
 74
     0
 49
-0.5
 74
     0
  0
LTYPE
  5
2DE
100
AcDbSymbolTableRecord
100
AcDbLinetypeTableRecord
  2
DASHDOT2
 70
     0
  3
Dash dot (.5x) _._._._._._._._._._._._._._._.
 72
    65
 73
     4
 40
0.5
 49
0.25
 74
     0
 49
-0.125
 74
     0
 49
0.0
 74
     0
 49
-0.125
 74
     0
  0
LTYPE
  5
2DF
100
AcDbSymbolTableRecord
100
AcDbLinetypeTableRecord
  2
DASHDOTX2
 70
     0
  3
Dash dot (2x) ____  .  ____  .  ____  .  ___
 72
    65
 73
     4
 40
2.0
 49
1.0
 74
     0
 49
-0.5
 74
     0
 49
0.0
 74
     0
 49
-0.5
 74
     0
  0
LTYPE
  5
2E0
100
AcDbSymbolTableRecord
100
AcDbLinetypeTableRecord
  2
DASHED2
 70
     0
  3
Dashed (.5x) _ _ _ _ _ _ _ _ _ _ _ _ _ _ _ _ _
 72
    65
 73
     2
 40
0.375
 49
0.25
 74
     0
 49
-0.125
 74
     0
  0
LTYPE
  5
2E1
100
AcDbSymbolTableRecord
100
AcDbLinetypeTableRecord
  2
DASHEDX2
 70
     0
  3
Dashed (2x) ____  ____  ____  ____  ____  ___
 72
    65
 73
     2
 40
1.5
 49
1.0
 74
     0
 49
-0.5
 74
     0
  0
LTYPE
  5
2E2
100
AcDbSymbolTableRecord
100
AcDbLinetypeTableRecord
  2
DIVIDE
 70
     0
  3
Divide ____ . . ____ . . ____ . . ____ . . ____
 72
    65
 73
     6
 40
1.25
 49
0.5
 74
     0
 49
-0.25
 74
     0
 49
0.0
 74
     0
 49
-0.25
 74
     0
 49
0.0
 74
     0
 49
-0.25
 74
     0
  0
LTYPE
  5
2E3
100
AcDbSymbolTableRecord
100
AcDbLinetypeTableRecord
  2
DIVIDE2
 70
     0
  3
Divide (.5x) __..__..__..__..__..__..__..__.._
 72
    65
 73
     6
 40
0.625
 49
0.25
 74
     0
 49
-0.125
 74
     0
 49
0.0
 74
     0
 49
-0.125
 74
     0
 49
0.0
 74
     0
 49
-0.125
 74
     0
  0
LTYPE
  5
2E4
100
AcDbSymbolTableRecord
100
AcDbLinetypeTableRecord
  2
DIVIDEX2
 70
     0
  3
Divide (2x) ________  .  .  ________  .  .  _
 72
    65
 73
     6
 40
2.5
 49
1.0
 74
     0
 49
-0.5
 74
     0
 49
0.0
 74
     0
 49
-0.5
 74
     0
 49
0.0
 74
     0
 49
-0.5
 74
     0
  0
LTYPE
  5
2E5
100
AcDbSymbolTableRecord
100
AcDbLinetypeTableRecord
  2
DOT
 70
     0
  3
Dot . . . . . . . . . . . . . . . . . . . . . .
 72
    65
 73
     2
 40
0.25
 49
0.0
 74
     0
 49
-0.25
 74
     0
  0
LTYPE
  5
2E6
100
AcDbSymbolTableRecord
100
AcDbLinetypeTableRecord
  2
DOTX2
 70
     0
  3
Dot (2x) .  .  .  .  .  .  .  .  .  .  .  .  . 
 72
    65
 73
     2
 40
0.5
 49
0.0
 74
     0
 49
-0.5
 74
     0
  0
LTYPE
  5
2E7
100
AcDbSymbolTableRecord
100
AcDbLinetypeTableRecord
  2
FENCELINE1
 70
     0
  3
Fenceline circle ----0-----0----0-----0----0---
 72
    65
 73
     4
 40
1.45
 49
0.25
 74
     0
 49
-0.1
 74
     4
 75
   133
340
2F7
 46
0.1
 50
0.0
 44
-0.1
 45
0.0
 49
-0.1
 74
     0
 49
1.0
 74
     0
  0
LTYPE
  5
2E8
100
AcDbSymbolTableRecord
100
AcDbLinetypeTableRecord
  2
FENCELINE2
 70
     0
  3
Fenceline square ----[]-----[]----[]-----[]----
 72
    65
 73
     4
 40
1.45
 49
0.25
 74
     0
 49
-0.1
 74
     4
 75
   132
340
2F7
 46
0.1
 50
0.0
 44
-0.1
 45
0.0
 49
-0.1
 74
     0
 49
1.0
 74
     0
  0
LTYPE
  5
2E9
100
AcDbSymbolTableRecord
100
AcDbLinetypeTableRecord
  2
GAS_LINE
 70
     0
  3
Gas line ----GAS----GAS----GAS----GAS----GAS---
 72
    65
 73
     3
 40
0.95
 49
0.5
 74
     0
 49
-0.2
 74
     2
 75
     0
340
C
 46
0.1
 50
0.0
 44
-0.1
 45
-0.05
  9
GAS
 49
-0.25
 74
     0
  0
LTYPE
  5
2EA
100
AcDbSymbolTableRecord
100
AcDbLinetypeTableRecord
  2
HIDDEN
 70
     0
  3
Hidden __ __ __ __ __ __ __ __ __ __ __ __ __ _
 72
    65
 73
     2
 40
0.375
 49
0.25
 74
     0
 49
-0.125
 74
     0
  0
LTYPE
  5
2EB
100
AcDbSymbolTableRecord
100
AcDbLinetypeTableRecord
  2
HIDDEN2
 70
     0
  3
Hidden (.5x) _ _ _ _ _ _ _ _ _ _ _ _ _ _ _ _ _
 72
    65
 73
     2
 40
0.1875
 49
0.125
 74
     0
 49
-0.0625
 74
     0
  0
LTYPE
  5
2EC
100
AcDbSymbolTableRecord
100
AcDbLinetypeTableRecord
  2
HIDDENX2
 70
     0
  3
Hidden (2x) ____ ____ ____ ____ ____ ____ ____
 72
    65
 73
     2
 40
0.75
 49
0.5
 74
     0
 49
-0.25
 74
     0
  0
LTYPE
  5
2ED
100
AcDbSymbolTableRecord
100
AcDbLinetypeTableRecord
  2
HOT_WATER_SUPPLY
 70
     0
  3
Hot water supply ---- HW ---- HW ---- HW ----
 72
    65
 73
     3
 40
0.9
 49
0.5
 74
     0
 49
-0.2
 74
     2
 75
     0
340
C
 46
0.1
 50
0.0
 44
-0.1
 45
-0.05
  9
HW
 49
-0.2
 74
     0
  0
LTYPE
  5
2EE
100
AcDbSymbolTableRecord
100
AcDbLinetypeTableRecord
  2
PHANTOM
 70
     0
  3
Phantom ______  __  __  ______  __  __  ______
 72
    65
 73
     6
 40
2.5
 49
1.25
 74
     0
 49
-0.25
 74
     0
 49
0.25
 74
     0
 49
-0.25
 74
     0
 49
0.25
 74
     0
 49
-0.25
 74
     0
  0
LTYPE
  5
2EF
100
AcDbSymbolTableRecord
100
AcDbLinetypeTableRecord
  2
PHANTOM2
 70
     0
  3
Phantom (.5x) ___ _ _ ___ _ _ ___ _ _ ___ _ _
 72
    65
 73
     6
 40
1.25
 49
0.625
 74
     0
 49
-0.125
 74
     0
 49
0.125
 74
     0
 49
-0.125
 74
     0
 49
0.125
 74
     0
 49
-0.125
 74
     0
  0
LTYPE
  5
2F0
100
AcDbSymbolTableRecord
100
AcDbLinetypeTableRecord
  2
PHANTOMX2
 70
     0
  3
Phantom (2x) ____________    ____    ____   _
 72
    65
 73
     6
 40
5.0
 49
2.5
 74
     0
 49
-0.5
 74
     0
 49
0.5
 74
     0
 49
-0.5
 74
     0
 49
0.5
 74
     0
 49
-0.5
 74
     0
  0
LTYPE
  5
2F1
100
AcDbSymbolTableRecord
100
AcDbLinetypeTableRecord
  2
TRACKS
 70
     0
  3
Tracks -|-|-|-|-|-|-|-|-|-|-|-|-|-|-|-|-|-|-|-|
 72
    65
 73
     2
 40
0.3
 49
0.15
 74
     4
 75
   130
340
2F7
 46
0.25
 50
0.0
 44
0.0
 45
0.0
 49
0.15
 74
     0
  0
LTYPE
  5
2F2
100
AcDbSymbolTableRecord
100
AcDbLinetypeTableRecord
  2
ZIGZAG
 70
     0
  3
Zig zag /\/\/\/\/\/\/\/\/\/\/\/\/\/\/\/\/\/\/\/
 72
    65
 73
     4
 40
0.8001
 49
0.0001
 74
     0
 49
-0.2
 74
     4
 75
   131
340
2F7
 46
0.2
 50
0.0
 44
-0.2
 45
0.0
 49
-0.4
 74
     4
 75
   131
340
2F7
 46
0.2
 50
180.0
 44
0.2
 45
0.0
 49
-0.2
 74
     0
  0
ENDTAB
  0
TABLE
  2
LAYER
  5
A
100
AcDbSymbolTable
 70
     8
  0
LAYER
  5
4
100
AcDbSymbolTableRecord
100
AcDbLayerTableRecord
  2
0
 70
     0
 62
     7
  6
CONTINUOUS
  0
LAYER
  5
2E
100
AcDbSymbolTableRecord
100
AcDbLayerTableRecord
  2
DEFPOINTS
 70
     0
 62
     7
  6
CONTINUOUS
  0
LAYER
  5
4E
100
AcDbSymbolTableRecord
100
AcDbLayerTableRecord
  2
V0-OBRYS
 70
     0
 62
    90
  6
CONTINUOUS
  0
LAYER
  5
24
100
AcDbSymbolTableRecord
100
AcDbLayerTableRecord
  2
V0-VYPLNE
 70
     0
 62
    52
  6
DASHDOT
  0
LAYER
  5
91
100
AcDbSymbolTableRecord
100
AcDbLayerTableRecord
  2
V0-NAZVY
 70
     0
 62
   210
  6
CONTINUOUS
  0
LAYER
  5
FE
100
AcDbSymbolTableRecord
100
AcDbLayerTableRecord
  2
V0-ZBYTEK
 70
     0
 62
    51
  6
CONTINUOUS
  0
LAYER
  5
7DB
100
AcDbSymbolTableRecord
100
AcDbLayerTableRecord
  2
V0-KOTY
 70
     0
 62
    41
  6
CONTINUOUS
  0
LAYER
  5
C9E
100
AcDbSymbolTableRecord
100
AcDbLayerTableRecord
  2
VZ1
 70
     0
 62
     7
  6
CONTINUOUS
  0
ENDTAB
  0
TABLE
  2
STYLE
  5
B
100
AcDbSymbolTable
 70
     8
  0
STYLE
  5
C
100
AcDbSymbolTableRecord
100
AcDbTextStyleTableRecord
  2
STANDARD
 70
     0
 40
0.0
 41
1.0
 50
0.0
 71
     0
 42
15.0
  3
ISOCP
  4

  0
STYLE
  5
2F3
100
AcDbSymbolTableRecord
100
AcDbTextStyleTableRecord
  2
ED30
 70
     0
 40
30.0
 41
1.0
 50
0.0
 71
     0
 42
30.0
  3
ISOCP.shx
  4

  0
STYLE
  5
2F4
100
AcDbSymbolTableRecord
100
AcDbTextStyleTableRecord
  2
ED20
 70
     0
 40
20.0
 41
1.0
 50
0.0
 71
     0
 42
20.0
  3
isocp.shx
  4

  0
STYLE
  5
2F5
100
AcDbSymbolTableRecord
100
AcDbTextStyleTableRecord
  2
ED40
 70
     0
 40
40.0
 41
1.0
 50
0.0
 71
     0
 42
20.0
  3
isocp.shx
  4

  0
STYLE
  5
2F6
100
AcDbSymbolTableRecord
100
AcDbTextStyleTableRecord
  2
ED10
 70
     0
 40
10.0
 41
1.0
 50
0.0
 71
     0
 42
20.0
  3
isocp.shx
  4

  0
STYLE
  5
2F7
100
AcDbSymbolTableRecord
100
AcDbTextStyleTableRecord
  2

 70
     1
 40
0.0
 41
1.0
 50
0.0
 71
     0
 42
0.2
  3
ltypeshp.shx
  4

  0
STYLE
  5
415
100
AcDbSymbolTableRecord
100
AcDbTextStyleTableRecord
  2
ED5
 70
     0
 40
10.0
 41
1.0
 50
0.0
 71
     0
 42
15.0
  3
ISOCP.shx
  4

  0
STYLE
  5
C9F
100
AcDbSymbolTableRecord
100
AcDbTextStyleTableRecord
  2
ROMANS
 70
     0
 40
50.0
 41
0.8
 50
0.0
 71
     0
 42
1.0
  3
romans.shx
  4

  0
ENDTAB
  0
TABLE
  2
VIEW
  5
10
100
AcDbSymbolTable
 70
     0
  0
ENDTAB
  0
TABLE
  2
UCS
  5
11
100
AcDbSymbolTable
 70
     0
  0
ENDTAB
  0
TABLE
  2
APPID
  5
14
100
AcDbSymbolTable
 70
     5
  0
APPID
  5
15
100
AcDbSymbolTableRecord
100
AcDbRegAppTableRecord
  2
ACAD
 70
     0
  0
APPID
  5
2FC
100
AcDbSymbolTableRecord
100
AcDbRegAppTableRecord
  2
CONTENTTABDATA
 70
     0
  0
APPID
  5
2FD
100
AcDbSymbolTableRecord
100
AcDbRegAppTableRecord
  2
CONTENTCURRENTTAB
 70
     0
  0
APPID
  5
2FE
100
AcDbSymbolTableRecord
100
AcDbRegAppTableRecord
  2
CONTENTBLOCKDESCRIPTION
 70
     0
  0
APPID
  5
2FF
100
AcDbSymbolTableRecord
100
AcDbRegAppTableRecord
  2
CONTENTBLOCKICON
 70
     0
  0
ENDTAB
  0
TABLE
  2
DIMSTYLE
  5
16
100
AcDbSymbolTable
 70
     7
  0
DIMSTYLE
105
1C
100
AcDbSymbolTableRecord
100
AcDbDimStyleTableRecord
  2
STANDARD
 70
     0
  3

  4

  5

  6
_OPEN
  7
_OPEN
 40
5.0
 41
3.5
 42
0.0625
 43
0.38
 44
0.18
 45
0.0
 46
0.0
 47
0.0
 48
0.0
140
3.5
141
0.0
142
0.0
143
25.4
144
1.0
145
0.0
146
1.0
147
0.625
 71
     0
 72
     0
 73
     0
 74
     0
 75
     0
 76
     0
 77
     1
 78
     0
170
     0
171
     2
172
     0
173
     1
174
     0
175
     0
176
     0
177
     0
178
     0
270
     2
271
     0
272
     4
273
     2
274
     2
340
C
275
     0
280
     0
281
     0
282
     0
283
     1
284
     0
285
     0
286
     0
287
     0
288
     0
  0
DIMSTYLE
105
2F8
100
AcDbSymbolTableRecord
100
AcDbDimStyleTableRecord
  2
ED30
 70
     0
  3

  4

  5

  6
_OPEN
  7
_OPEN
 40
0.0
 41
25.0
 42
1.0
 43
3.75
 44
1.25
 45
0.0
 46
0.0
 47
0.0
 48
0.0
140
30.0
141
3.0
142
0.0
143
0.0394
144
1.0
145
0.0
146
1.0
147
2.0
 71
     0
 72
     0
 73
     0
 74
     0
 75
     0
 76
     0
 77
     1
 78
     8
170
     0
171
     4
172
     1
173
     1
174
     0
175
     0
176
     0
177
     0
178
     0
270
     2
271
     0
272
     1
273
     8
274
     4
340
2F3
275
     0
280
     0
281
     0
282
     0
283
     1
284
     8
285
     0
286
     0
287
     3
288
     0
  0
DIMSTYLE
105
2F9
102
{ACAD_REACTORS
330
CFA
330
D14
330
D21
330
D2E
330
D3E
330
D63
102
}
100
AcDbSymbolTableRecord
100
AcDbDimStyleTableRecord
  2
ED40
 70
     0
  3

  4

  5

  6
_OPEN
  7
_OPEN
 40
0.0
 41
35.0
 42
1.0
 43
3.75
 44
1.25
 45
0.0
 46
0.0
 47
0.0
 48
0.0
140
40.0
141
3.0
142
0.0
143
0.0394
144
1.0
145
0.0
146
1.0
147
3.0
 71
     0
 72
     0
 73
     0
 74
     0
 75
     0
 76
     0
 77
     1
 78
     8
170
     0
171
     4
172
     1
173
     1
174
     0
175
     0
176
     0
177
     0
178
     0
270
     2
271
     0
272
     1
273
     8
274
     4
340
2F5
275
     0
280
     0
281
     0
282
     0
283
     1
284
     8
285
     0
286
     0
287
     3
288
     0
  0
DIMSTYLE
105
2FA
100
AcDbSymbolTableRecord
100
AcDbDimStyleTableRecord
  2
ED20
 70
     0
  3

  4

  5

  6
_OPEN
  7
_OPEN
 40
0.0
 41
20.0
 42
1.0
 43
3.75
 44
1.25
 45
0.0
 46
0.0
 47
0.0
 48
0.0
140
20.0
141
3.0
142
0.0
143
0.0394
144
1.0
145
0.0
146
1.0
147
1.5
 71
     0
 72
     0
 73
     0
 74
     0
 75
     0
 76
     0
 77
     1
 78
     8
170
     0
171
     4
172
     1
173
     1
174
     0
175
     0
176
   256
177
   256
178
   256
270
     2
271
     0
272
     1
273
     8
274
     4
340
2F4
275
     0
280
     0
281
     0
282
     0
283
     1
284
     8
285
     0
286
     0
287
     3
288
     0
  0
DIMSTYLE
105
2FB
100
AcDbSymbolTableRecord
100
AcDbDimStyleTableRecord
  2
ED10
 70
     0
  3

  4

  5

  6
_OPEN
  7
_OPEN
 40
0.0
 41
15.0
 42
1.0
 43
3.75
 44
1.25
 45
0.0
 46
0.0
 47
0.0
 48
0.0
140
10.0
141
3.0
142
0.0
143
0.0394
144
1.0
145
0.0
146
1.0
147
1.5
 71
     0
 72
     0
 73
     0
 74
     0
 75
     0
 76
     0
 77
     1
 78
     8
170
     0
171
     4
172
     1
173
     1
174
     0
175
     0
176
     0
177
     0
178
     0
270
     2
271
     0
272
     1
273
     8
274
     4
340
2F4
275
     0
280
     0
281
     0
282
     0
283
     1
284
     8
285
     0
286
     0
287
     3
288
     0
  0
DIMSTYLE
105
417
100
AcDbSymbolTableRecord
100
AcDbDimStyleTableRecord
  2
ED5
 70
     0
  3

  4

  5

  6
_OPEN
  7
_OPEN
 40
0.0
 41
12.0
 42
1.0
 43
3.75
 44
1.25
 45
0.0
 46
0.0
 47
0.0
 48
0.0
140
10.0
141
3.0
142
0.0
143
0.0394
144
1.0
145
0.0
146
1.0
147
1.5
 71
     0
 72
     0
 73
     0
 74
     0
 75
     0
 76
     0
 77
     1
 78
     8
170
     0
171
     4
172
     1
173
     1
174
     0
175
     0
176
   256
177
   256
178
   256
270
     2
271
     0
272
     1
273
     8
274
     4
340
415
275
     0
280
     0
281
     0
282
     0
283
     1
284
     8
285
     0
286
     0
287
     3
288
     0
  0
DIMSTYLE
105
CA0
100
AcDbSymbolTableRecord
100
AcDbDimStyleTableRecord
  2
STANEK
 70
     0
  3

  4

  5

  6
_OBLIQUE
  7
_OBLIQUE
 40
0.0
 41
2.0
 42
0.625
 43
3.75
 44
1.0
 45
1.0
 46
0.0
 47
0.0
 48
0.0
140
2.2
141
-100.0
142
0.0
143
0.0394
144
2.2
145
2.0
146
2.2
147
0.625
 71
     0
 72
     0
 73
     0
 74
     0
 75
     0
 76
     0
 77
     1
 78
     8
170
     0
171
     4
172
     1
173
     1
174
     0
175
     0
176
     1
177
     1
178
     1
270
     2
271
     4
272
     4
273
     2
274
     4
340
C9F
275
     0
280
     0
281
     0
282
     0
283
     1
284
     8
285
     8
286
     8
287
     5
288
     0
  0
ENDTAB
  0
TABLE
  2
BLOCK_RECORD
  5
1
100
AcDbSymbolTable
 70
    26
  0
BLOCK_RECORD
  5
2
100
AcDbSymbolTableRecord
100
AcDbBlockTableRecord
  2
*MODEL_SPACE
  0
BLOCK_RECORD
  5
7
100
AcDbSymbolTableRecord
100
AcDbBlockTableRecord
  2
*PAPER_SPACE
  0
BLOCK_RECORD
  5
1D
100
AcDbSymbolTableRecord
100
AcDbBlockTableRecord
  2
_OPEN
  0
BLOCK_RECORD
  5
213
100
AcDbSymbolTableRecord
100
AcDbBlockTableRecord
  2
A20_350
  0
BLOCK_RECORD
  5
878
100
AcDbSymbolTableRecord
100
AcDbBlockTableRecord
  2
MRIZ-KRUH2
  0
BLOCK_RECORD
  5
9E3
100
AcDbSymbolTableRecord
100
AcDbBlockTableRecord
  2
284
  0
BLOCK_RECORD
  5
9FB
100
AcDbSymbolTableRecord
100
AcDbBlockTableRecord
  2
334
  0
BLOCK_RECORD
  5
A10
100
AcDbSymbolTableRecord
100
AcDbBlockTableRecord
  2
374
  0
BLOCK_RECORD
  5
A24
100
AcDbSymbolTableRecord
100
AcDbBlockTableRecord
  2
424
  0
BLOCK_RECORD
  5
A37
100
AcDbSymbolTableRecord
100
AcDbBlockTableRecord
  2
D100
  0
BLOCK_RECORD
  5
A42
100
AcDbSymbolTableRecord
100
AcDbBlockTableRecord
  2
D125
  0
BLOCK_RECORD
  5
A4E
100
AcDbSymbolTableRecord
100
AcDbBlockTableRecord
  2
D160
  0
BLOCK_RECORD
  5
A5A
100
AcDbSymbolTableRecord
100
AcDbBlockTableRecord
  2
D200
  0
BLOCK_RECORD
  5
A65
100
AcDbSymbolTableRecord
100
AcDbBlockTableRecord
  2
D250
  0
BLOCK_RECORD
  5
A70
100
AcDbSymbolTableRecord
100
AcDbBlockTableRecord
  2
D315
  0
BLOCK_RECORD
  5
A7F
100
AcDbSymbolTableRecord
100
AcDbBlockTableRecord
  2
DD199
  0
BLOCK_RECORD
  5
A8F
100
AcDbSymbolTableRecord
100
AcDbBlockTableRecord
  2
DD242
  0
BLOCK_RECORD
  5
A9F
100
AcDbSymbolTableRecord
100
AcDbBlockTableRecord
  2
DD282
  0
BLOCK_RECORD
  5
AB1
100
AcDbSymbolTableRecord
100
AcDbBlockTableRecord
  2
DD332
  0
BLOCK_RECORD
  5
C9A
100
AcDbSymbolTableRecord
100
AcDbBlockTableRecord
  2
_OBLIQUE
  0
BLOCK_RECORD
  5
CA1
100
AcDbSymbolTableRecord
100
AcDbBlockTableRecord
  2
VOVRTULE
  0
BLOCK_RECORD
  5
CB8
100
AcDbSymbolTableRecord
100
AcDbBlockTableRecord
  2
VOMRIZKRUH
  0
BLOCK_RECORD
  5
CEE
100
AcDbSymbolTableRecord
100
AcDbBlockTableRecord
  2
*D20
  0
BLOCK_RECORD
  5
D08
100
AcDbSymbolTableRecord
100
AcDbBlockTableRecord
  2
*D21
  0
BLOCK_RECORD
  5
D15
100
AcDbSymbolTableRecord
100
AcDbBlockTableRecord
  2
*D22
  0
BLOCK_RECORD
  5
D22
100
AcDbSymbolTableRecord
100
AcDbBlockTableRecord
  2
*D23
  0
BLOCK_RECORD
  5
D32
100
AcDbSymbolTableRecord
100
AcDbBlockTableRecord
  2
*D24
  0
BLOCK_RECORD
  5
D57
100
AcDbSymbolTableRecord
100
AcDbBlockTableRecord
  2
*D25
  0
ENDTAB
  0
ENDSEC
  0
SECTION
  2
BLOCKS
  0
BLOCK
  5
3
100
AcDbEntity
  8
0
100
AcDbBlockBegin
  2
*MODEL_SPACE
 70
     0
 10
0.0
 20
0.0
 30
0.0
  3
*MODEL_SPACE
  1

  0
ENDBLK
  5
6
100
AcDbEntity
  8
0
100
AcDbBlockEnd
  0
BLOCK
  5
8
100
AcDbEntity
 67
     1
  8
0
100
AcDbBlockBegin
  2
*PAPER_SPACE
 70
     0
 10
0.0
 20
0.0
 30
0.0
  3
*PAPER_SPACE
  1

  0
ENDBLK
  5
9
100
AcDbEntity
 67
     1
  8
0
100
AcDbBlockEnd
  0
BLOCK
  5
21
100
AcDbEntity
  8
0
100
AcDbBlockBegin
  2
_OPEN
 70
     0
 10
0.0
 20
0.0
 30
0.0
  3
_OPEN
  1

  0
LINE
  5
1E
100
AcDbEntity
  8
0
  6
BYBLOCK
 62
     0
100
AcDbLine
 10
-1.0
 20
0.166667
 30
0.0
 11
0.0
 21
0.0
 31
0.0
  0
LINE
  5
1F
100
AcDbEntity
  8
0
  6
BYBLOCK
 62
     0
100
AcDbLine
 10
0.0
 20
0.0
 30
0.0
 11
-1.0
 21
-0.166667
 31
0.0
  0
LINE
  5
20
100
AcDbEntity
  8
0
  6
BYBLOCK
 62
     0
100
AcDbLine
 10
0.0
 20
0.0
 30
0.0
 11
-1.0
 21
0.0
 31
0.0
  0
ENDBLK
  5
22
100
AcDbEntity
  8
0
100
AcDbBlockEnd
  0
BLOCK
  5
214
100
AcDbEntity
  8
0
 62
    41
100
AcDbBlockBegin
  2
A20_350
 70
     0
 10
0.0
 20
0.0
 30
0.0
  3
A20_350
  1

  0
ENDBLK
  5
215
100
AcDbEntity
  8
0
 62
    41
100
AcDbBlockEnd
  0
BLOCK
  5
879
100
AcDbEntity
  8
0
100
AcDbBlockBegin
  2
MRIZ-KRUH2
 70
     0
 10
0.0
 20
0.0
 30
0.0
  3
MRIZ-KRUH2
  1

  0
LWPOLYLINE
  5
87A
100
AcDbEntity
  8
V0-KOTY
  6
CONTINUOUS
 62
    90
100
AcDbPolyline
 90
        4
 70
     0
 43
0.0
 39
10.0
 10
1.350687
 20
-29.878129
 10
1.350687
 20
-57.5
 10
-1.350687
 20
-57.5
 10
-1.350687
 20
-29.878129
  0
LWPOLYLINE
  5
87B
100
AcDbEntity
  8
V0-KOTY
  6
CONTINUOUS
 62
    90
100
AcDbPolyline
 90
        4
 70
     1
 43
0.0
 39
10.0
 10
57.5
 20
1.350687
 10
57.5
 20
-1.350687
 10
29.878129
 20
-1.350687
 10
29.878129
 20
1.350687
  0
LWPOLYLINE
  5
87C
100
AcDbEntity
  8
V0-KOTY
  6
CONTINUOUS
 62
    90
100
AcDbPolyline
 90
        4
 70
     1
 43
0.0
 39
10.0
 10
-57.5
 20
-1.350687
 10
-57.5
 20
1.350687
 10
-29.878129
 20
1.350687
 10
-29.878129
 20
-1.350687
  0
LWPOLYLINE
  5
87D
100
AcDbEntity
  8
V0-KOTY
  6
CONTINUOUS
 62
    90
100
AcDbPolyline
 90
        4
 70
     1
 43
0.0
 39
10.0
 10
-1.350687
 20
57.5
 10
1.350687
 20
57.5
 10
1.350687
 20
29.878129
 10
-1.350687
 20
29.878129
  0
ARC
  5
87E
100
AcDbEntity
  8
V0-OBRYS
  6
CONTINUOUS
 62
    90
100
AcDbCircle
 10
0.0
 20
0.0
 30
0.0
 40
47.5
100
AcDbArc
 50
181.629455
 51
268.370545
  0
ARC
  5
87F
100
AcDbEntity
  8
V0-OBRYS
  6
CONTINUOUS
 62
    90
100
AcDbCircle
 10
0.0
 20
0.0
 30
0.0
 40
57.5
100
AcDbArc
 50
1.346014
 51
0.0
  0
ARC
  5
880
100
AcDbEntity
  8
V0-OBRYS
  6
CONTINUOUS
 62
    90
100
AcDbCircle
 10
0.0
 20
0.0
 30
0.0
 40
47.5
100
AcDbArc
 50
271.629455
 51
358.370545
  0
ARC
  5
881
100
AcDbEntity
  8
V0-OBRYS
  6
CONTINUOUS
 62
    90
100
AcDbCircle
 10
0.0
 20
0.0
 30
0.0
 40
45.0
100
AcDbArc
 50
181.720007
 51
268.279993
  0
ARC
  5
882
100
AcDbEntity
  8
V0-OBRYS
  6
CONTINUOUS
 62
    90
100
AcDbCircle
 10
0.0
 20
0.0
 30
0.0
 40
45.0
100
AcDbArc
 50
91.720007
 51
178.279993
  0
ARC
  5
883
100
AcDbEntity
  8
V0-OBRYS
  6
CONTINUOUS
 62
    90
100
AcDbCircle
 10
0.0
 20
0.0
 30
0.0
 40
47.5
100
AcDbArc
 50
91.629455
 51
178.370545
  0
ARC
  5
884
100
AcDbEntity
  8
V0-OBRYS
  6
CONTINUOUS
 62
    90
100
AcDbCircle
 10
0.0
 20
0.0
 30
0.0
 40
30.0
100
AcDbArc
 50
2.580495
 51
177.419505
  0
ARC
  5
885
100
AcDbEntity
  8
V0-OBRYS
  6
CONTINUOUS
 62
    90
100
AcDbCircle
 10
0.0
 20
0.0
 30
0.0
 40
32.5
100
AcDbArc
 50
92.381876
 51
177.618124
  0
ARC
  5
886
100
AcDbEntity
  8
V0-OBRYS
  6
CONTINUOUS
 62
    90
100
AcDbCircle
 10
0.0
 20
0.0
 30
0.0
 40
32.5
100
AcDbArc
 50
2.381876
 51
87.618124
  0
ARC
  5
887
100
AcDbEntity
  8
V0-OBRYS
  6
CONTINUOUS
 62
    90
100
AcDbCircle
 10
0.0
 20
0.0
 30
0.0
 40
45.0
100
AcDbArc
 50
1.720007
 51
88.279993
  0
ARC
  5
888
100
AcDbEntity
  8
V0-OBRYS
  6
CONTINUOUS
 62
    90
100
AcDbCircle
 10
0.0
 20
0.0
 30
0.0
 40
47.5
100
AcDbArc
 50
1.629455
 51
88.370545
  0
ARC
  5
889
100
AcDbEntity
  8
V0-OBRYS
  6
CONTINUOUS
 62
    90
100
AcDbCircle
 10
0.0
 20
0.0
 30
0.0
 40
32.5
100
AcDbArc
 50
272.381876
 51
357.618124
  0
ARC
  5
88A
100
AcDbEntity
  8
V0-OBRYS
  6
CONTINUOUS
 62
    90
100
AcDbCircle
 10
0.0
 20
0.0
 30
0.0
 40
30.0
100
AcDbArc
 50
182.580495
 51
357.419505
  0
ARC
  5
88B
100
AcDbEntity
  8
V0-OBRYS
  6
CONTINUOUS
 62
    90
100
AcDbCircle
 10
0.0
 20
0.0
 30
0.0
 40
45.0
100
AcDbArc
 50
271.720007
 51
358.279993
  0
ARC
  5
88C
100
AcDbEntity
  8
V0-OBRYS
  6
CONTINUOUS
 62
    90
100
AcDbCircle
 10
0.0
 20
0.0
 30
0.0
 40
32.5
100
AcDbArc
 50
182.381876
 51
267.618124
  0
POINT
  5
88D
100
AcDbEntity
  8
V0-KOTY
  6
CONTINUOUS
100
AcDbPoint
 10
0.0
 20
0.0
 30
0.0
  0
ENDBLK
  5
88E
100
AcDbEntity
  8
0
100
AcDbBlockEnd
  0
BLOCK
  5
9E4
100
AcDbEntity
  8
0
100
AcDbBlockBegin
  2
284
 70
     0
 10
0.0
 20
0.0
 30
0.0
  3
284
  1

  0
LINE
  5
9E5
100
AcDbEntity
  8
V0-OBRYS
100
AcDbLine
 10
0.0
 20
284.0
 30
0.0
 11
0.0
 21
0.0
 31
0.0
  0
LINE
  5
9E6
100
AcDbEntity
  8
V0-OBRYS
100
AcDbLine
 10
284.0
 20
0.0
 30
0.0
 11
284.0
 21
284.0
 31
0.0
  0
LINE
  5
9E7
100
AcDbEntity
  8
V0-OBRYS
100
AcDbLine
 10
-35.0
 20
284.0
 30
0.0
 11
-35.0
 21
0.0
 31
0.0
  0
LINE
  5
9E8
100
AcDbEntity
  8
V0-OBRYS
100
AcDbLine
 10
-30.0
 20
0.0
 30
0.0
 11
-30.0
 21
284.0
 31
0.0
  0
LINE
  5
9E9
100
AcDbEntity
  8
V0-OBRYS
100
AcDbLine
 10
0.0
 20
0.0
 30
0.0
 11
284.0
 21
0.0
 31
0.0
  0
LINE
  5
9EA
100
AcDbEntity
  8
V0-OBRYS
100
AcDbLine
 10
-35.0
 20
0.0
 30
0.0
 11
-30.0
 21
0.0
 31
0.0
  0
LINE
  5
9EB
100
AcDbEntity
  8
V0-OBRYS
100
AcDbLine
 10
284.0
 20
284.0
 30
0.0
 11
0.0
 21
284.0
 31
0.0
  0
LINE
  5
9EC
100
AcDbEntity
  8
V0-OBRYS
100
AcDbLine
 10
-30.0
 20
284.0
 30
0.0
 11
-35.0
 21
284.0
 31
0.0
  0
ENDBLK
  5
9ED
100
AcDbEntity
  8
0
100
AcDbBlockEnd
  0
BLOCK
  5
9FC
100
AcDbEntity
  8
0
100
AcDbBlockBegin
  2
334
 70
     0
 10
0.0
 20
0.0
 30
0.0
  3
334
  1

  0
LINE
  5
9FD
100
AcDbEntity
  8
V0-OBRYS
100
AcDbLine
 10
-73.143241
 20
334.0
 30
0.0
 11
-73.143241
 21
0.0
 31
0.0
  0
LINE
  5
9FE
100
AcDbEntity
  8
V0-OBRYS
100
AcDbLine
 10
-68.143241
 20
0.0
 30
0.0
 11
-68.143241
 21
334.0
 31
0.0
  0
LINE
  5
9FF
100
AcDbEntity
  8
V0-OBRYS
100
AcDbLine
 10
-73.143241
 20
0.0
 30
0.0
 11
-68.143241
 21
0.0
 31
0.0
  0
LINE
  5
A00
100
AcDbEntity
  8
V0-OBRYS
100
AcDbLine
 10
-60.081948
 20
87.429285
 30
0.0
 11
-65.081948
 21
87.429285
 31
0.0
  0
LINE
  5
A01
100
AcDbEntity
  8
V0-OBRYS
100
AcDbLine
 10
-68.143241
 20
334.0
 30
0.0
 11
-73.143241
 21
334.0
 31
0.0
  0
LINE
  5
A02
100
AcDbEntity
  8
V0-OBRYS
100
AcDbLine
 10
0.0
 20
334.0
 30
0.0
 11
0.0
 21
0.0
 31
0.0
  0
LINE
  5
A03
100
AcDbEntity
  8
V0-OBRYS
100
AcDbLine
 10
334.0
 20
0.0
 30
0.0
 11
334.0
 21
334.0
 31
0.0
  0
LINE
  5
A04
100
AcDbEntity
  8
V0-OBRYS
100
AcDbLine
 10
0.0
 20
0.0
 30
0.0
 11
334.0
 21
0.0
 31
0.0
  0
LINE
  5
A05
100
AcDbEntity
  8
V0-OBRYS
100
AcDbLine
 10
334.0
 20
334.0
 30
0.0
 11
0.0
 21
334.0
 31
0.0
  0
ENDBLK
  5
A06
100
AcDbEntity
  8
0
100
AcDbBlockEnd
  0
BLOCK
  5
A11
100
AcDbEntity
  8
0
100
AcDbBlockBegin
  2
374
 70
     0
 10
0.0
 20
0.0
 30
0.0
  3
374
  1

  0
LINE
  5
A12
100
AcDbEntity
  8
V0-OBRYS
100
AcDbLine
 10
-66.612595
 20
374.0
 30
0.0
 11
-66.612595
 21
0.0
 31
0.0
  0
LINE
  5
A13
100
AcDbEntity
  8
V0-OBRYS
100
AcDbLine
 10
-61.612595
 20
0.0
 30
0.0
 11
-61.612595
 21
374.0
 31
0.0
  0
LINE
  5
A14
100
AcDbEntity
  8
V0-OBRYS
100
AcDbLine
 10
-66.612595
 20
0.0
 30
0.0
 11
-61.612595
 21
0.0
 31
0.0
  0
LINE
  5
A15
100
AcDbEntity
  8
V0-OBRYS
100
AcDbLine
 10
-61.612595
 20
374.0
 30
0.0
 11
-66.612595
 21
374.0
 31
0.0
  0
LINE
  5
A16
100
AcDbEntity
  8
V0-OBRYS
100
AcDbLine
 10
0.0
 20
374.0
 30
0.0
 11
0.0
 21
0.0
 31
0.0
  0
LINE
  5
A17
100
AcDbEntity
  8
V0-OBRYS
100
AcDbLine
 10
374.0
 20
0.0
 30
0.0
 11
374.0
 21
374.0
 31
0.0
  0
LINE
  5
A18
100
AcDbEntity
  8
V0-OBRYS
100
AcDbLine
 10
0.0
 20
0.0
 30
0.0
 11
374.0
 21
0.0
 31
0.0
  0
LINE
  5
A19
100
AcDbEntity
  8
V0-OBRYS
100
AcDbLine
 10
374.0
 20
374.0
 30
0.0
 11
0.0
 21
374.0
 31
0.0
  0
ENDBLK
  5
A1A
100
AcDbEntity
  8
0
100
AcDbBlockEnd
  0
BLOCK
  5
A25
100
AcDbEntity
  8
0
100
AcDbBlockBegin
  2
424
 70
     0
 10
0.0
 20
0.0
 30
0.0
  3
424
  1

  0
LINE
  5
A26
100
AcDbEntity
  8
V0-OBRYS
100
AcDbLine
 10
-66.612597
 20
424.0
 30
0.0
 11
-66.612597
 21
0.0
 31
0.0
  0
LINE
  5
A27
100
AcDbEntity
  8
V0-OBRYS
100
AcDbLine
 10
-61.612597
 20
0.0
 30
0.0
 11
-61.612597
 21
424.0
 31
0.0
  0
LINE
  5
A28
100
AcDbEntity
  8
V0-OBRYS
100
AcDbLine
 10
-66.612597
 20
0.0
 30
0.0
 11
-61.612597
 21
0.0
 31
0.0
  0
LINE
  5
A29
100
AcDbEntity
  8
V0-OBRYS
100
AcDbLine
 10
-61.612597
 20
424.0
 30
0.0
 11
-66.612597
 21
424.0
 31
0.0
  0
LINE
  5
A2A
100
AcDbEntity
  8
V0-OBRYS
100
AcDbLine
 10
0.0
 20
424.0
 30
0.0
 11
0.0
 21
0.0
 31
0.0
  0
LINE
  5
A2B
100
AcDbEntity
  8
V0-OBRYS
100
AcDbLine
 10
424.0
 20
0.0
 30
0.0
 11
424.0
 21
424.0
 31
0.0
  0
LINE
  5
A2C
100
AcDbEntity
  8
V0-OBRYS
100
AcDbLine
 10
0.0
 20
0.0
 30
0.0
 11
424.0
 21
0.0
 31
0.0
  0
LINE
  5
A2D
100
AcDbEntity
  8
V0-OBRYS
100
AcDbLine
 10
424.0
 20
424.0
 30
0.0
 11
0.0
 21
424.0
 31
0.0
  0
ENDBLK
  5
A2E
100
AcDbEntity
  8
0
100
AcDbBlockEnd
  0
BLOCK
  5
A38
100
AcDbEntity
  8
0
100
AcDbBlockBegin
  2
D100
 70
     0
 10
0.0
 20
0.0
 30
0.0
  3
D100
  1

  0
LINE
  5
A39
100
AcDbEntity
  8
V0-OBRYS
100
AcDbLine
 10
0.0
 20
50.0
 30
0.0
 11
0.0
 21
-50.0
 31
0.0
  0
LINE
  5
A3A
100
AcDbEntity
  8
V0-OBRYS
100
AcDbLine
 10
20.0
 20
-50.0
 30
0.0
 11
20.0
 21
50.0
 31
0.0
  0
LINE
  5
A3B
100
AcDbEntity
  8
V0-OBRYS
100
AcDbLine
 10
0.0
 20
-50.0
 30
0.0
 11
20.0
 21
-50.0
 31
0.0
  0
LINE
  5
A3C
100
AcDbEntity
  8
V0-OBRYS
100
AcDbLine
 10
20.0
 20
50.0
 30
0.0
 11
0.0
 21
50.0
 31
0.0
  0
ENDBLK
  5
A3D
100
AcDbEntity
  8
0
100
AcDbBlockEnd
  0
BLOCK
  5
A43
100
AcDbEntity
  8
0
100
AcDbBlockBegin
  2
D125
 70
     0
 10
0.0
 20
0.0
 30
0.0
  3
D125
  1

  0
LINE
  5
A44
100
AcDbEntity
  8
V0-OBRYS
100
AcDbLine
 10
-3.510327
 20
-3.775247
 30
0.0
 11
-3.510327
 21
-3.775247
 31
100.0
210
0.0
220
-1.0
230
-0.0000000000000002
  0
LINE
  5
A45
100
AcDbEntity
  8
V0-OBRYS
100
AcDbLine
 10
0.0
 20
62.5
 30
0.0
 11
0.0
 21
-62.5
 31
0.0
  0
LINE
  5
A46
100
AcDbEntity
  8
V0-OBRYS
100
AcDbLine
 10
30.0
 20
-62.5
 30
0.0
 11
30.0
 21
62.5
 31
0.0
  0
LINE
  5
A47
100
AcDbEntity
  8
V0-OBRYS
100
AcDbLine
 10
0.0
 20
-62.5
 30
0.0
 11
30.0
 21
-62.5
 31
0.0
  0
LINE
  5
A48
100
AcDbEntity
  8
V0-OBRYS
100
AcDbLine
 10
30.0
 20
62.5
 30
0.0
 11
0.0
 21
62.5
 31
0.0
  0
ENDBLK
  5
A49
100
AcDbEntity
  8
0
100
AcDbBlockEnd
  0
BLOCK
  5
A4F
100
AcDbEntity
  8
0
100
AcDbBlockBegin
  2
D160
 70
     0
 10
0.0
 20
0.0
 30
0.0
  3
D160
  1

  0
LINE
  5
A50
100
AcDbEntity
  8
V0-OBRYS
100
AcDbLine
 10
0.0
 20
160.0
 30
0.0
 11
0.0
 21
0.0
 31
0.0
  0
LINE
  5
A51
100
AcDbEntity
  8
V0-OBRYS
100
AcDbLine
 10
30.0
 20
0.0
 30
0.0
 11
30.0
 21
160.0
 31
0.0
  0
LINE
  5
A52
100
AcDbEntity
  8
V0-OBRYS
100
AcDbLine
 10
0.0
 20
0.0
 30
0.0
 11
30.0
 21
0.0
 31
0.0
  0
LINE
  5
A53
100
AcDbEntity
  8
V0-OBRYS
100
AcDbLine
 10
30.0
 20
160.0
 30
0.0
 11
0.0
 21
160.0
 31
0.0
  0
ENDBLK
  5
A54
100
AcDbEntity
  8
0
100
AcDbBlockEnd
  0
BLOCK
  5
A5B
100
AcDbEntity
  8
0
100
AcDbBlockBegin
  2
D200
 70
     0
 10
0.0
 20
0.0
 30
0.0
  3
D200
  1

  0
LINE
  5
A5C
100
AcDbEntity
  8
V0-OBRYS
100
AcDbLine
 10
0.0
 20
200.0
 30
0.0
 11
0.0
 21
0.0
 31
0.0
  0
LINE
  5
A5D
100
AcDbEntity
  8
V0-OBRYS
100
AcDbLine
 10
30.0
 20
0.0
 30
0.0
 11
30.0
 21
200.0
 31
0.0
  0
LINE
  5
A5E
100
AcDbEntity
  8
V0-OBRYS
100
AcDbLine
 10
0.0
 20
0.0
 30
0.0
 11
30.0
 21
0.0
 31
0.0
  0
LINE
  5
A5F
100
AcDbEntity
  8
V0-OBRYS
100
AcDbLine
 10
30.0
 20
200.0
 30
0.0
 11
0.0
 21
200.0
 31
0.0
  0
ENDBLK
  5
A60
100
AcDbEntity
  8
0
100
AcDbBlockEnd
  0
BLOCK
  5
A66
100
AcDbEntity
  8
0
100
AcDbBlockBegin
  2
D250
 70
     0
 10
0.0
 20
0.0
 30
0.0
  3
D250
  1

  0
LINE
  5
A67
100
AcDbEntity
  8
V0-OBRYS
100
AcDbLine
 10
30.0
 20
125.0
 30
0.0
 11
0.0
 21
125.0
 31
0.0
  0
LINE
  5
A68
100
AcDbEntity
  8
V0-OBRYS
100
AcDbLine
 10
0.0
 20
-125.0
 30
0.0
 11
30.0
 21
-125.0
 31
0.0
  0
LINE
  5
A69
100
AcDbEntity
  8
V0-OBRYS
100
AcDbLine
 10
0.0
 20
125.0
 30
0.0
 11
0.0
 21
-125.0
 31
0.0
  0
LINE
  5
A6A
100
AcDbEntity
  8
V0-OBRYS
100
AcDbLine
 10
30.0
 20
-125.0
 30
0.0
 11
30.0
 21
125.0
 31
0.0
  0
ENDBLK
  5
A6B
100
AcDbEntity
  8
0
100
AcDbBlockEnd
  0
BLOCK
  5
A71
100
AcDbEntity
  8
0
100
AcDbBlockBegin
  2
D315
 70
     0
 10
0.0
 20
0.0
 30
0.0
  3
D315
  1

  0
LINE
  5
A72
100
AcDbEntity
  8
V0-OBRYS
100
AcDbLine
 10
0.0
 20
157.5
 30
0.0
 11
0.0
 21
-157.5
 31
0.0
  0
LINE
  5
A73
100
AcDbEntity
  8
V0-OBRYS
100
AcDbLine
 10
30.0
 20
-157.5
 30
0.0
 11
30.0
 21
157.5
 31
0.0
  0
LINE
  5
A74
100
AcDbEntity
  8
V0-OBRYS
100
AcDbLine
 10
0.0
 20
-157.5
 30
0.0
 11
30.0
 21
-157.5
 31
0.0
  0
LINE
  5
A75
100
AcDbEntity
  8
V0-OBRYS
100
AcDbLine
 10
30.0
 20
157.5
 30
0.0
 11
0.0
 21
157.5
 31
0.0
  0
ENDBLK
  5
A76
100
AcDbEntity
  8
0
100
AcDbBlockEnd
  0
BLOCK
  5
A80
100
AcDbEntity
  8
0
100
AcDbBlockBegin
  2
DD199
 70
     0
 10
0.0
 20
0.0
 30
0.0
  3
DD199
  1

  0
LINE
  5
A81
100
AcDbEntity
  8
V0-OBRYS
100
AcDbLine
 10
-120.0
 20
99.5
 30
0.0
 11
-120.0
 21
-99.5
 31
0.0
  0
LINE
  5
A82
100
AcDbEntity
  8
V0-OBRYS
100
AcDbLine
 10
0.0
 20
-99.5
 30
0.0
 11
0.0
 21
99.5
 31
0.0
  0
LINE
  5
A83
100
AcDbEntity
  8
V0-OBRYS
100
AcDbLine
 10
-120.0
 20
-99.5
 30
0.0
 11
0.0
 21
-99.5
 31
0.0
  0
LINE
  5
A84
100
AcDbEntity
  8
V0-VYPLNE
100
AcDbLine
 10
-143.674226
 20
0.0
 30
0.0
 11
111.020992
 21
0.0
 31
0.0
  0
LINE
  5
A85
100
AcDbEntity
  8
V0-OBRYS
100
AcDbLine
 10
0.0
 20
99.5
 30
0.0
 11
-120.0
 21
99.5
 31
0.0
  0
POINT
  5
A86
100
AcDbEntity
  8
V0-VYPLNE
100
AcDbPoint
 10
0.0
 20
0.0
 30
0.0
  0
ENDBLK
  5
A87
100
AcDbEntity
  8
0
100
AcDbBlockEnd
  0
BLOCK
  5
A90
100
AcDbEntity
  8
0
100
AcDbBlockBegin
  2
DD242
 70
     0
 10
0.0
 20
0.0
 30
0.0
  3
DD242
  1

  0
LINE
  5
A91
100
AcDbEntity
  8
V0-OBRYS
100
AcDbLine
 10
-125.0
 20
121.0
 30
0.0
 11
-125.0
 21
-121.0
 31
0.0
  0
LINE
  5
A92
100
AcDbEntity
  8
V0-OBRYS
100
AcDbLine
 10
0.0
 20
-121.0
 30
0.0
 11
0.0
 21
121.0
 31
0.0
  0
LINE
  5
A93
100
AcDbEntity
  8
V0-OBRYS
100
AcDbLine
 10
-125.0
 20
-121.0
 30
0.0
 11
0.0
 21
-121.0
 31
0.0
  0
LINE
  5
A94
100
AcDbEntity
  8
V0-VYPLNE
100
AcDbLine
 10
-143.674226
 20
0.0
 30
0.0
 11
111.020992
 21
0.0
 31
0.0
  0
POINT
  5
A95
100
AcDbEntity
  8
V0-VYPLNE
100
AcDbPoint
 10
0.0
 20
0.0
 30
0.0
  0
LINE
  5
A96
100
AcDbEntity
  8
V0-OBRYS
100
AcDbLine
 10
0.0
 20
121.0
 30
0.0
 11
-125.0
 21
121.0
 31
0.0
  0
ENDBLK
  5
A97
100
AcDbEntity
  8
0
100
AcDbBlockEnd
  0
BLOCK
  5
AA0
100
AcDbEntity
  8
0
100
AcDbBlockBegin
  2
DD282
 70
     0
 10
0.0
 20
0.0
 30
0.0
  3
DD282
  1

  0
LINE
  5
AA1
100
AcDbEntity
  8
V0-OBRYS
100
AcDbLine
 10
-105.0
 20
141.0
 30
0.0
 11
-105.0
 21
-141.0
 31
0.0
  0
LINE
  5
AA2
100
AcDbEntity
  8
V0-OBRYS
100
AcDbLine
 10
0.0
 20
-141.0
 30
0.0
 11
0.0
 21
141.0
 31
0.0
  0
LINE
  5
AA3
100
AcDbEntity
  8
V0-OBRYS
100
AcDbLine
 10
-105.0
 20
-141.0
 30
0.0
 11
0.0
 21
-141.0
 31
0.0
  0
LINE
  5
AA4
100
AcDbEntity
  8
V0-VYPLNE
100
AcDbLine
 10
-143.674226
 20
0.0
 30
0.0
 11
111.020992
 21
0.0
 31
0.0
  0
POINT
  5
AA5
100
AcDbEntity
  8
V0-VYPLNE
100
AcDbPoint
 10
0.0
 20
0.0
 30
0.0
  0
LINE
  5
AA6
100
AcDbEntity
  8
V0-OBRYS
100
AcDbLine
 10
0.0
 20
141.0
 30
0.0
 11
-105.0
 21
141.0
 31
0.0
  0
ENDBLK
  5
AA7
100
AcDbEntity
  8
0
100
AcDbBlockEnd
  0
BLOCK
  5
AB2
100
AcDbEntity
  8
0
100
AcDbBlockBegin
  2
DD332
 70
     0
 10
0.0
 20
0.0
 30
0.0
  3
DD332
  1

  0
LINE
  5
AB3
100
AcDbEntity
  8
V0-OBRYS
100
AcDbLine
 10
-120.0
 20
166.0
 30
0.0
 11
-120.0
 21
-166.0
 31
0.0
  0
LINE
  5
AB4
100
AcDbEntity
  8
V0-OBRYS
100
AcDbLine
 10
0.0
 20
-166.0
 30
0.0
 11
0.0
 21
166.0
 31
0.0
  0
LINE
  5
AB5
100
AcDbEntity
  8
V0-OBRYS
100
AcDbLine
 10
-120.0
 20
-166.0
 30
0.0
 11
0.0
 21
-166.0
 31
0.0
  0
LINE
  5
AB6
100
AcDbEntity
  8
V0-VYPLNE
100
AcDbLine
 10
-143.674226
 20
0.0
 30
0.0
 11
111.020992
 21
0.0
 31
0.0
  0
POINT
  5
AB7
100
AcDbEntity
  8
V0-VYPLNE
100
AcDbPoint
 10
0.0
 20
0.0
 30
0.0
  0
LINE
  5
AB8
100
AcDbEntity
  8
V0-OBRYS
100
AcDbLine
 10
-120.0
 20
166.0
 30
0.0
 11
0.0
 21
166.0
 31
0.0
  0
ENDBLK
  5
AB9
100
AcDbEntity
  8
0
100
AcDbBlockEnd
  0
BLOCK
  5
C9C
100
AcDbEntity
  8
0
100
AcDbBlockBegin
  2
_OBLIQUE
 70
     0
 10
0.0
 20
0.0
 30
0.0
  3
_OBLIQUE
  1

  0
LINE
  5
C9B
100
AcDbEntity
  8
0
  6
BYBLOCK
 62
     0
100
AcDbLine
 10
-0.5
 20
-0.5
 30
0.0
 11
0.5
 21
0.5
 31
0.0
  0
ENDBLK
  5
C9D
100
AcDbEntity
  8
0
100
AcDbBlockEnd
  0
BLOCK
  5
CB4
100
AcDbEntity
  8
0
100
AcDbBlockBegin
  2
VOVRTULE
 70
     0
 10
0.0
 20
0.0
 30
0.0
  3
VOVRTULE
  1

  0
LINE
  5
CA2
100
AcDbEntity
  8
VZ1
  6
CONTINUOUS
100
AcDbLine
 10
0.0
 20
28.822222
 30
1.802979
 11
0.0
 21
94.218377
 31
5.893847
210
1.0
220
-0.0000000000000002
230
0.0000000000000001
  0
LINE
  5
CA3
100
AcDbEntity
  8
VZ1
  6
CONTINUOUS
100
AcDbLine
 10
0.0
 20
25.714583
 30
-13.142733
 11
0.0
 21
84.059664
 31
-42.962925
210
1.0
220
-0.0000000000000002
230
0.0000000000000001
  0
LINE
  5
CA4
100
AcDbEntity
  8
VZ1
  6
CONTINUOUS
100
AcDbLine
 10
0.0
 20
20.445725
 30
20.394694
 11
0.0
 21
66.836035
 31
66.669217
210
1.0
220
-0.0000000000000002
230
0.0000000000000001
  0
ARC
  5
CA5
100
AcDbEntity
  8
VZ1
  6
CONTINUOUS
100
AcDbCircle
 10
0.0
 20
0.0
 30
0.0
 40
94.402542
210
1.0
220
0.0
230
-0.0000000000000002
100
AcDbArc
 50
44.928408
 51
75.579483
  0
CIRCLE
  5
CA6
100
AcDbEntity
  8
VZ1
  6
CONTINUOUS
100
AcDbCircle
 10
0.0
 20
0.0
 30
0.0
 40
22.66879
210
1.0
220
0.0
230
-0.0000000000000002
  0
CIRCLE
  5
CA7
100
AcDbEntity
  8
VZ1
  6
CONTINUOUS
100
AcDbCircle
 10
0.0
 20
0.0
 30
0.0
 40
28.87856
210
1.0
220
0.0
230
-0.0000000000000002
  0
POINT
  5
CA8
100
AcDbEntity
  8
VZ1
  6
CONTINUOUS
100
AcDbPoint
 10
0.0
 20
0.0
 30
0.0
210
1.0
220
-0.0000000000000002
230
0.0000000000000001
 50
0.0
  0
LINE
  5
CA9
100
AcDbEntity
  8
VZ1
  6
CONTINUOUS
100
AcDbLine
 10
0.0
 20
-28.52864
 30
-4.481958
 11
0.0
 21
-93.25867
 31
-14.651294
210
1.0
220
-0.0000000000000002
230
0.0000000000000001
  0
ARC
  5
CAA
100
AcDbEntity
  8
VZ1
  6
CONTINUOUS
100
AcDbCircle
 10
0.0
 20
0.0
 30
0.0
 40
94.402542
210
1.0
220
0.0
230
-0.0000000000000002
100
AcDbArc
 50
188.928408
 51
219.579483
  0
LINE
  5
CAB
100
AcDbEntity
  8
VZ1
  6
CONTINUOUS
100
AcDbLine
 10
0.0
 20
10.621291
 30
-26.854411
 11
0.0
 21
34.720461
 31
-87.785703
210
1.0
220
-0.0000000000000002
230
0.0000000000000001
  0
LINE
  5
CAC
100
AcDbEntity
  8
VZ1
  6
CONTINUOUS
100
AcDbLine
 10
0.0
 20
-4.553239
 30
-28.51735
 11
0.0
 21
-14.884305
 31
-93.221765
210
1.0
220
-0.0000000000000002
230
0.0000000000000001
  0
ARC
  5
CAD
100
AcDbEntity
  8
VZ1
  6
CONTINUOUS
100
AcDbCircle
 10
0.0
 20
0.0
 30
0.0
 40
94.402542
210
1.0
220
0.0
230
-0.0000000000000002
100
AcDbArc
 50
260.928408
 51
291.579483
  0
LINE
  5
CAE
100
AcDbEntity
  8
VZ1
  6
CONTINUOUS
100
AcDbLine
 10
0.0
 20
-22.257903
 30
-18.399918
 11
0.0
 21
-72.759952
 31
-60.148395
210
1.0
220
-0.0000000000000002
230
0.0000000000000001
  0
LINE
  5
CAF
100
AcDbEntity
  8
VZ1
  6
CONTINUOUS
100
AcDbLine
 10
0.0
 20
-24.377432
 30
15.482637
 11
0.0
 21
-79.688584
 31
50.61195
210
1.0
220
-0.0000000000000002
230
0.0000000000000001
  0
ARC
  5
CB0
100
AcDbEntity
  8
VZ1
  6
CONTINUOUS
100
AcDbCircle
 10
0.0
 20
0.0
 30
0.0
 40
94.402542
210
1.0
220
0.0
230
-0.0000000000000002
100
AcDbArc
 50
116.928408
 51
147.579483
  0
LINE
  5
CB1
100
AcDbEntity
  8
VZ1
  6
CONTINUOUS
100
AcDbLine
 10
0.0
 20
-13.07843
 30
25.747347
 11
0.0
 21
-42.752723
 31
84.166767
210
1.0
220
-0.0000000000000002
230
0.0000000000000001
  0
LINE
  5
CB2
100
AcDbEntity
  8
VZ1
  6
CONTINUOUS
100
AcDbLine
 10
0.0
 20
7.191822
 30
27.968713
 11
0.0
 21
23.509698
 31
91.4283
210
1.0
220
-0.0000000000000002
230
0.0000000000000001
  0
ARC
  5
CB3
100
AcDbEntity
  8
VZ1
  6
CONTINUOUS
100
AcDbCircle
 10
0.0
 20
0.0
 30
0.0
 40
94.402542
210
1.0
220
0.0
230
-0.0000000000000002
100
AcDbArc
 50
332.928408
 51
3.579483
  0
ENDBLK
  5
CB5
100
AcDbEntity
  8
0
100
AcDbBlockEnd
  0
BLOCK
  5
CC6
100
AcDbEntity
  8
0
100
AcDbBlockBegin
  2
VOMRIZKRUH
 70
     0
 10
0.0
 20
0.0
 30
0.0
  3
VOMRIZKRUH
  1

  0
CIRCLE
  5
CB9
100
AcDbEntity
  8
0
  6
CONTINUOUS
 62
     7
100
AcDbCircle
 10
0.0
 20
0.0
 30
0.0
 40
0.345918
  0
LINE
  5
CBA
100
AcDbEntity
  8
0
  6
CONTINUOUS
 62
     7
100
AcDbLine
 10
0.0
 20
0.0
 30
0.0
 11
0.336897
 21
0.336897
 31
0.0
  0
LINE
  5
CBB
100
AcDbEntity
  8
0
  6
CONTINUOUS
 62
     7
100
AcDbLine
 10
0.0
 20
0.0
 30
0.0
 11
0.476444
 21
0.0
 31
0.0
  0
LINE
  5
CBC
100
AcDbEntity
  8
0
  6
CONTINUOUS
 62
     7
100
AcDbLine
 10
0.0
 20
0.0
 30
0.0
 11
0.336897
 21
-0.336897
 31
0.0
  0
CIRCLE
  5
CBD
100
AcDbEntity
  8
0
  6
CONTINUOUS
 62
     7
100
AcDbCircle
 10
0.0
 20
0.0
 30
0.0
 40
0.480791
  0
CIRCLE
  5
CBE
100
AcDbEntity
  8
0
  6
CONTINUOUS
 62
     7
100
AcDbCircle
 10
0.0
 20
0.0
 30
0.0
 40
0.5
  0
CIRCLE
  5
CBF
100
AcDbEntity
  8
0
  6
CONTINUOUS
 62
     7
100
AcDbCircle
 10
0.0
 20
0.0
 30
0.0
 40
0.197887
  0
CIRCLE
  5
CC0
100
AcDbEntity
  8
0
  6
CONTINUOUS
 62
     7
100
AcDbCircle
 10
0.0
 20
0.0
 30
0.0
 40
0.059725
  0
LINE
  5
CC1
100
AcDbEntity
  8
0
  6
CONTINUOUS
 62
     7
100
AcDbLine
 10
0.0
 20
0.0
 30
0.0
 11
0.0
 21
-0.476444
 31
0.0
  0
LINE
  5
CC2
100
AcDbEntity
  8
0
  6
CONTINUOUS
 62
     7
100
AcDbLine
 10
0.0
 20
0.0
 30
0.0
 11
-0.336897
 21
-0.336897
 31
0.0
  0
LINE
  5
CC3
100
AcDbEntity
  8
0
  6
CONTINUOUS
 62
     7
100
AcDbLine
 10
0.0
 20
0.0
 30
0.0
 11
-0.476444
 21
0.0
 31
0.0
  0
LINE
  5
CC4
100
AcDbEntity
  8
0
  6
CONTINUOUS
 62
     7
100
AcDbLine
 10
0.0
 20
0.0
 30
0.0
 11
-0.336897
 21
0.336897
 31
0.0
  0
LINE
  5
CC5
100
AcDbEntity
  8
0
  6
CONTINUOUS
 62
     7
100
AcDbLine
 10
0.0
 20
0.0
 30
0.0
 11
0.0
 21
0.476444
 31
0.0
  0
ENDBLK
  5
CC7
100
AcDbEntity
  8
0
100
AcDbBlockEnd
  0
BLOCK
  5
DD0
100
AcDbEntity
  8
0
100
AcDbBlockBegin
  2
*D20
 70
     1
 10
0.0
 20
0.0
 30
0.0
  3
*D20
  1

  0
LINE
  5
DD1
100
AcDbEntity
  8
0
  6
BYBLOCK
 62
     0
100
AcDbLine
 10
557.331996
 20
299.615038
 30
0.0
 11
695.069833
 21
299.615038
 31
0.0
  0
LINE
  5
DD2
100
AcDbEntity
  8
0
  6
BYBLOCK
 62
     0
100
AcDbLine
 10
557.331996
 20
-15.384962
 30
0.0
 11
695.069833
 21
-15.384962
 31
0.0
  0
LINE
  5
DD3
100
AcDbEntity
  8
0
  6
BYBLOCK
 62
     0
100
AcDbLine
 10
693.819833
 20
264.615038
 30
0.0
 11
693.819833
 21
19.615038
 31
0.0
  0
INSERT
  5
DD4
100
AcDbEntity
  8
0
  6
BYBLOCK
 62
     0
100
AcDbBlockReference
  2
_OPEN
 10
693.819833
 20
299.615038
 30
0.0
 41
35.0
 42
35.0
 43
35.0
 50
90.0
  0
INSERT
  5
DD5
100
AcDbEntity
  8
0
  6
BYBLOCK
 62
     0
100
AcDbBlockReference
  2
_OPEN
 10
693.819833
 20
-15.384962
 30
0.0
 41
35.0
 42
35.0
 43
35.0
 50
270.0
  0
MTEXT
  5
DD6
100
AcDbEntity
  8
0
  6
BYBLOCK
 62
     0
100
AcDbMText
 10
670.819833
 20
142.115038
 30
0.0
 40
40.0
 41
0.0
 71
     5
 72
     1
  1
\A1;\U+2205315
  7
ED40
 11
0.0
 21
1.0
 31
0.0
  0
POINT
  5
DD7
100
AcDbEntity
  8
DEFPOINTS
  6
BYBLOCK
 62
     0
100
AcDbPoint
 10
556.331996
 20
299.615038
 30
0.0
  0
POINT
  5
DD8
100
AcDbEntity
  8
DEFPOINTS
  6
BYBLOCK
 62
     0
100
AcDbPoint
 10
556.331996
 20
-15.384962
 30
0.0
  0
POINT
  5
DD9
100
AcDbEntity
  8
DEFPOINTS
  6
BYBLOCK
 62
     0
100
AcDbPoint
 10
693.819833
 20
-15.384962
 30
0.0
  0
ENDBLK
  5
DDA
100
AcDbEntity
  8
0
100
AcDbBlockEnd
  0
BLOCK
  5
D09
100
AcDbEntity
  8
0
100
AcDbBlockBegin
  2
*D21
 70
     1
 10
0.0
 20
0.0
 30
0.0
  3
*D21
  1

  0
LINE
  5
D0A
100
AcDbEntity
  8
0
  6
BYBLOCK
 62
     0
100
AcDbLine
 10
216.544318
 20
-251.896337
 30
0.0
 11
216.544318
 21
-345.039884
 31
0.0
  0
LINE
  5
D0B
100
AcDbEntity
  8
0
  6
BYBLOCK
 62
     0
100
AcDbLine
 10
686.331996
 20
-252.306991
 30
0.0
 11
686.331996
 21
-345.039884
 31
0.0
  0
LINE
  5
D0C
100
AcDbEntity
  8
0
  6
BYBLOCK
 62
     0
100
AcDbLine
 10
251.544318
 20
-343.789884
 30
0.0
 11
651.331996
 21
-343.789884
 31
0.0
  0
INSERT
  5
D0D
100
AcDbEntity
  8
0
  6
BYBLOCK
 62
     0
100
AcDbBlockReference
  2
_OPEN
 10
216.544318
 20
-343.789884
 30
0.0
 41
35.0
 42
35.0
 43
35.0
 50
180.0
  0
INSERT
  5
D0E
100
AcDbEntity
  8
0
  6
BYBLOCK
 62
     0
100
AcDbBlockReference
  2
_OPEN
 10
686.331996
 20
-343.789884
 30
0.0
 41
35.0
 42
35.0
 43
35.0
  0
MTEXT
  5
D0F
100
AcDbEntity
  8
0
  6
BYBLOCK
 62
     0
100
AcDbMText
 10
451.438157
 20
-320.789884
 30
0.0
 40
40.0
 41
0.0
 71
     5
 72
     1
  1
\A1;470
  7
ED40
  0
POINT
  5
D10
100
AcDbEntity
  8
DEFPOINTS
  6
BYBLOCK
 62
     0
100
AcDbPoint
 10
216.544318
 20
-250.896337
 30
0.0
  0
POINT
  5
D11
100
AcDbEntity
  8
DEFPOINTS
  6
BYBLOCK
 62
     0
100
AcDbPoint
 10
686.331996
 20
-251.306991
 30
0.0
  0
POINT
  5
D12
100
AcDbEntity
  8
DEFPOINTS
  6
BYBLOCK
 62
     0
100
AcDbPoint
 10
686.331996
 20
-343.789884
 30
0.0
  0
ENDBLK
  5
D13
100
AcDbEntity
  8
0
100
AcDbBlockEnd
  0
BLOCK
  5
D7A
100
AcDbEntity
  8
0
100
AcDbBlockBegin
  2
*D22
 70
     1
 10
0.0
 20
0.0
 30
0.0
  3
*D22
  1

  0
LINE
  5
D7B
100
AcDbEntity
  8
0
  6
BYBLOCK
 62
     0
100
AcDbLine
 10
962.560682
 20
-222.306991
 30
0.0
 11
962.560682
 21
-331.724588
 31
0.0
  0
LINE
  5
D7C
100
AcDbEntity
  8
0
  6
BYBLOCK
 62
     0
100
AcDbLine
 10
1402.560682
 20
-222.306991
 30
0.0
 11
1402.560682
 21
-331.724588
 31
0.0
  0
LINE
  5
D7D
100
AcDbEntity
  8
0
  6
BYBLOCK
 62
     0
100
AcDbLine
 10
997.560682
 20
-330.474588
 30
0.0
 11
1367.560682
 21
-330.474588
 31
0.0
  0
INSERT
  5
D7E
100
AcDbEntity
  8
0
  6
BYBLOCK
 62
     0
100
AcDbBlockReference
  2
_OPEN
 10
962.560682
 20
-330.474588
 30
0.0
 41
35.0
 42
35.0
 43
35.0
 50
180.0
  0
INSERT
  5
D7F
100
AcDbEntity
  8
0
  6
BYBLOCK
 62
     0
100
AcDbBlockReference
  2
_OPEN
 10
1402.560682
 20
-330.474588
 30
0.0
 41
35.0
 42
35.0
 43
35.0
  0
MTEXT
  5
D80
100
AcDbEntity
  8
0
  6
BYBLOCK
 62
     0
100
AcDbMText
 10
1182.560682
 20
-307.474588
 30
0.0
 40
40.0
 41
0.0
 71
     5
 72
     1
  1
\A1;439
  7
ED40
  0
POINT
  5
D81
100
AcDbEntity
  8
DEFPOINTS
  6
BYBLOCK
 62
     0
100
AcDbPoint
 10
962.560682
 20
-221.306991
 30
0.0
  0
POINT
  5
D82
100
AcDbEntity
  8
DEFPOINTS
  6
BYBLOCK
 62
     0
100
AcDbPoint
 10
1402.560682
 20
-221.306991
 30
0.0
  0
POINT
  5
D83
100
AcDbEntity
  8
DEFPOINTS
  6
BYBLOCK
 62
     0
100
AcDbPoint
 10
1402.560682
 20
-330.474588
 30
0.0
  0
ENDBLK
  5
D84
100
AcDbEntity
  8
0
100
AcDbBlockEnd
  0
BLOCK
  5
D64
100
AcDbEntity
  8
0
100
AcDbBlockBegin
  2
*D23
 70
     1
 10
0.0
 20
0.0
 30
0.0
  3
*D23
  1

  0
LINE
  5
D65
100
AcDbEntity
  8
0
  6
BYBLOCK
 62
     0
100
AcDbLine
 10
312.804241
 20
142.115038
 30
0.0
 11
122.846075
 21
142.115038
 31
0.0
  0
LINE
  5
D66
100
AcDbEntity
  8
0
  6
BYBLOCK
 62
     0
100
AcDbLine
 10
218.624308
 20
-258.491444
 30
0.0
 11
122.846075
 21
-258.491444
 31
0.0
  0
LINE
  5
D67
100
AcDbEntity
  8
0
  6
BYBLOCK
 62
     0
100
AcDbLine
 10
124.096075
 20
107.115038
 30
0.0
 11
124.096075
 21
-223.491444
 31
0.0
  0
INSERT
  5
D68
100
AcDbEntity
  8
0
  6
BYBLOCK
 62
     0
100
AcDbBlockReference
  2
_OPEN
 10
124.096075
 20
142.115038
 30
0.0
 41
35.0
 42
35.0
 43
35.0
 50
90.0
  0
INSERT
  5
D69
100
AcDbEntity
  8
0
  6
BYBLOCK
 62
     0
100
AcDbBlockReference
  2
_OPEN
 10
124.096075
 20
-258.491444
 30
0.0
 41
35.0
 42
35.0
 43
35.0
 50
270.0
  0
MTEXT
  5
D6A
100
AcDbEntity
  8
0
  6
BYBLOCK
 62
     0
100
AcDbMText
 10
101.096075
 20
-58.188203
 30
0.0
 40
40.0
 41
0.0
 71
     5
 72
     1
  1
\A1;400
  7
ED40
 11
0.0
 21
1.0
 31
0.0
  0
POINT
  5
D6B
100
AcDbEntity
  8
DEFPOINTS
  6
BYBLOCK
 62
     0
100
AcDbPoint
 10
313.804241
 20
142.115038
 30
0.0
  0
POINT
  5
D6C
100
AcDbEntity
  8
DEFPOINTS
  6
BYBLOCK
 62
     0
100
AcDbPoint
 10
219.624308
 20
-258.491444
 30
0.0
  0
POINT
  5
D6D
100
AcDbEntity
  8
DEFPOINTS
  6
BYBLOCK
 62
     0
100
AcDbPoint
 10
124.096075
 20
-258.491444
 30
0.0
  0
ENDBLK
  5
D6E
100
AcDbEntity
  8
0
100
AcDbBlockEnd
  0
BLOCK
  5
D3F
100
AcDbEntity
  8
0
100
AcDbBlockBegin
  2
*D24
 70
     1
 10
0.0
 20
0.0
 30
0.0
  3
*D24
  1

  0
LINE
  5
D40
100
AcDbEntity
  8
0
  6
BYBLOCK
 62
     0
100
AcDbLine
 10
528.233937
 20
361.920638
 30
0.0
 11
791.689651
 21
361.920638
 31
0.0
  0
LINE
  5
D41
100
AcDbEntity
  8
0
  6
BYBLOCK
 62
     0
100
AcDbLine
 10
687.331996
 20
-255.94584
 30
0.0
 11
791.689651
 21
-255.94584
 31
0.0
  0
LINE
  5
D42
100
AcDbEntity
  8
0
  6
BYBLOCK
 62
     0
100
AcDbLine
 10
790.439651
 20
326.920638
 30
0.0
 11
790.439651
 21
-220.94584
 31
0.0
  0
INSERT
  5
D43
100
AcDbEntity
  8
0
  6
BYBLOCK
 62
     0
100
AcDbBlockReference
  2
_OPEN
 10
790.439651
 20
361.920638
 30
0.0
 41
35.0
 42
35.0
 43
35.0
 50
90.0
  0
INSERT
  5
D44
100
AcDbEntity
  8
0
  6
BYBLOCK
 62
     0
100
AcDbBlockReference
  2
_OPEN
 10
790.439651
 20
-255.94584
 30
0.0
 41
35.0
 42
35.0
 43
35.0
 50
270.0
  0
MTEXT
  5
D45
100
AcDbEntity
  8
0
  6
BYBLOCK
 62
     0
100
AcDbMText
 10
767.435714
 20
52.987399
 30
0.0
 40
40.0
 41
0.0
 71
     5
 72
     1
  1
\A1;642
  7
ED40
 11
0.0
 21
1.0
 31
0.0
  0
POINT
  5
D46
100
AcDbEntity
  8
DEFPOINTS
  6
BYBLOCK
 62
     0
100
AcDbPoint
 10
527.233937
 20
361.920638
 30
0.0
  0
POINT
  5
D47
100
AcDbEntity
  8
DEFPOINTS
  6
BYBLOCK
 62
     0
100
AcDbPoint
 10
686.331996
 20
-255.94584
 30
0.0
  0
POINT
  5
D48
100
AcDbEntity
  8
DEFPOINTS
  6
BYBLOCK
 62
     0
100
AcDbPoint
 10
790.439651
 20
-255.94584
 30
0.0
  0
ENDBLK
  5
D49
100
AcDbEntity
  8
0
100
AcDbBlockEnd
  0
BLOCK
  5
D6F
100
AcDbEntity
  8
0
100
AcDbBlockBegin
  2
*D25
 70
     1
 10
0.0
 20
0.0
 30
0.0
  3
*D25
  1

  0
LINE
  5
D70
100
AcDbEntity
  8
0
  6
BYBLOCK
 62
     0
100
AcDbLine
 10
346.331996
 20
300.615038
 30
0.0
 11
346.331996
 21
439.733576
 31
0.0
  0
LINE
  5
D71
100
AcDbEntity
  8
0
  6
BYBLOCK
 62
     0
100
AcDbLine
 10
556.331996
 20
300.615038
 30
0.0
 11
556.331996
 21
439.733576
 31
0.0
  0
LINE
  5
D72
100
AcDbEntity
  8
0
  6
BYBLOCK
 62
     0
100
AcDbLine
 10
381.331996
 20
438.483576
 30
0.0
 11
521.331996
 21
438.483576
 31
0.0
  0
INSERT
  5
D73
100
AcDbEntity
  8
0
  6
BYBLOCK
 62
     0
100
AcDbBlockReference
  2
_OPEN
 10
346.331996
 20
438.483576
 30
0.0
 41
35.0
 42
35.0
 43
35.0
 50
180.0
  0
INSERT
  5
D74
100
AcDbEntity
  8
0
  6
BYBLOCK
 62
     0
100
AcDbBlockReference
  2
_OPEN
 10
556.331996
 20
438.483576
 30
0.0
 41
35.0
 42
35.0
 43
35.0
  0
MTEXT
  5
D75
100
AcDbEntity
  8
0
  6
BYBLOCK
 62
     0
100
AcDbMText
 10
451.331996
 20
461.487513
 30
0.0
 40
40.0
 41
0.0
 71
     5
 72
     1
  1
\A1;211
  7
ED40
  0
POINT
  5
D76
100
AcDbEntity
  8
DEFPOINTS
  6
BYBLOCK
 62
     0
100
AcDbPoint
 10
346.331996
 20
299.615038
 30
0.0
  0
POINT
  5
D77
100
AcDbEntity
  8
DEFPOINTS
  6
BYBLOCK
 62
     0
100
AcDbPoint
 10
556.331996
 20
299.615038
 30
0.0
  0
POINT
  5
D78
100
AcDbEntity
  8
DEFPOINTS
  6
BYBLOCK
 62
     0
100
AcDbPoint
 10
556.331996
 20
438.483576
 30
0.0
  0
ENDBLK
  5
D79
100
AcDbEntity
  8
0
100
AcDbBlockEnd
  0
ENDSEC
  0
SECTION
  2
ENTITIES
  0
MTEXT
  5
ACC
100
AcDbEntity
  8
V0-ZBYTEK
 62
    51
100
AcDbMText
 10
1191.667354
 20
-741.938356
 30
0.0
 40
27.1236
 41
768.358116
 71
     5
 72
     5
  1
STOJANOVY  AXIALNI \PVENTILATOR
  7
ED10
  0
MTEXT
  5
ACD
100
AcDbEntity
  8
V0-NAZVY
100
AcDbMText
 10
1193.594445
 20
-653.404977
 30
0.0
 40
48.435
 41
398.408
 71
     5
 72
     5
  1
PBB-315
  7
ED10
  0
LINE
  5
BFE
100
AcDbEntity
  8
V0-OBRYS
100
AcDbLine
 10
972.560682
 20
158.693009
 30
0.0
 11
972.560682
 21
-221.306991
 31
0.0
  0
LINE
  5
BFF
100
AcDbEntity
  8
V0-OBRYS
100
AcDbLine
 10
992.560682
 20
-241.306991
 30
0.0
 11
1069.661187
 21
-241.306991
 31
0.0
  0
LINE
  5
C00
100
AcDbEntity
  8
V0-OBRYS
100
AcDbLine
 10
1074.610934
 20
-239.256738
 30
0.0
 11
1088.167284
 21
-225.700389
 31
0.0
  0
LINE
  5
C01
100
AcDbEntity
  8
V0-OBRYS
100
AcDbLine
 10
1098.773885
 20
-221.306991
 30
0.0
 11
1182.560682
 21
-221.306991
 31
0.0
  0
LINE
  5
C02
100
AcDbEntity
  8
V0-OBRYS
100
AcDbLine
 10
962.560682
 20
158.693009
 30
0.0
 11
962.560682
 21
-221.306991
 31
0.0
  0
LINE
  5
C03
100
AcDbEntity
  8
V0-OBRYS
100
AcDbLine
 10
992.560682
 20
-251.306991
 30
0.0
 11
1070.489614
 21
-251.306991
 31
0.0
  0
LINE
  5
C04
100
AcDbEntity
  8
V0-OBRYS
100
AcDbLine
 10
1081.096216
 20
-246.913593
 30
0.0
 11
1094.652565
 21
-233.357243
 31
0.0
  0
LINE
  5
C05
100
AcDbEntity
  8
V0-OBRYS
100
AcDbLine
 10
1099.602312
 20
-231.306991
 30
0.0
 11
1182.560682
 21
-231.306991
 31
0.0
  0
ARC
  5
C06
100
AcDbEntity
  8
V0-OBRYS
100
AcDbCircle
 10
992.560682
 20
-221.306991
 30
0.0
 40
20.0
100
AcDbArc
 50
180.0
 51
270.0
  0
ARC
  5
C16
100
AcDbEntity
  8
V0-OBRYS
100
AcDbCircle
 10
992.560682
 20
-221.306991
 30
0.0
 40
30.0
100
AcDbArc
 50
180.0
 51
270.0
  0
ARC
  5
C1F
100
AcDbEntity
  8
V0-OBRYS
100
AcDbCircle
 10
1098.773885
 20
-236.306991
 30
0.0
 40
15.0
100
AcDbArc
 50
90.0
 51
135.0
  0
ARC
  5
C20
100
AcDbEntity
  8
V0-OBRYS
100
AcDbCircle
 10
1070.489614
 20
-236.306991
 30
0.0
 40
15.0
100
AcDbArc
 50
270.0
 51
315.0
  0
ARC
  5
C21
100
AcDbEntity
  8
V0-OBRYS
100
AcDbCircle
 10
1069.661187
 20
-234.306991
 30
0.0
 40
7.0
100
AcDbArc
 50
270.0
 51
315.0
  0
ARC
  5
C22
100
AcDbEntity
  8
V0-OBRYS
100
AcDbCircle
 10
1099.602312
 20
-238.306991
 30
0.0
 40
7.0
100
AcDbArc
 50
90.0
 51
135.0
  0
MLINE
  5
C23
100
AcDbEntity
  8
V0-OBRYS
100
AcDbMline
  2
STANDARD
340
1B
 40
10.0
 70
     0
 71
     1
 72
     2
 73
     2
 10
962.560681922932
 20
158.6930090662976
 30
0.0
210
0.0
220
0.0
230
1.0
 11
962.560681922932
 21
158.6930090662976
 31
0.0
 12
0.0
 22
1.0
 32
0.0
 13
-1.0
 23
1.224606353822377E-16
 33
0.0
 74
     2
 41
0.0
 41
0.0
 75
     0
 74
     2
 41
-10.0
 41
0.0
 75
     0
 11
962.560681922932
 21
188.6930090662976
 31
0.0
 12
0.0
 22
1.0
 32
0.0
 13
-1.0
 23
1.224606353822377E-16
 33
0.0
 74
     2
 41
0.0
 41
0.0
 75
     0
 74
     2
 41
-10.0
 41
0.0
 75
     0
  0
ARC
  5
C24
100
AcDbEntity
  8
V0-OBRYS
100
AcDbCircle
 10
451.331996
 20
142.115038
 30
0.0
 40
30.0
100
AcDbArc
 50
27.340515
 51
152.659485
  0
ARC
  5
C26
100
AcDbEntity
  8
V0-OBRYS
100
AcDbCircle
 10
451.331996
 20
142.115038
 30
0.0
 40
40.0
100
AcDbArc
 50
27.340515
 51
152.659485
  0
MLINE
  5
C2C
100
AcDbEntity
  8
V0-OBRYS
100
AcDbMline
  2
STANDARD
340
1B
 40
-10.0
 70
     0
 71
     1
 72
     2
 73
     2
 10
686.3319962819014
 20
-251.3069909337024
 30
0.0
210
0.0
220
0.0
230
1.0
 11
686.3319962819014
 21
-251.3069909337024
 31
0.0
 12
-0.4359390562892992
 22
0.8999761881303278
 32
0.0
 13
-0.8999761881303278
 23
-0.4359390562892991
 33
0.0
 74
     2
 41
0.0
 41
0.0
 75
     0
 74
     2
 41
10.0
 41
0.0
 75
     0
 11
486.8637038365225
 21
160.4861505569882
 31
0.0
 12
-0.4359390562892992
 22
0.8999761881303278
 32
0.0
 13
-0.8999761881303278
 23
-0.4359390562892991
 33
0.0
 74
     2
 41
0.0
 41
0.0
 75
     0
 74
     2
 41
10.0
 41
0.0
 75
     0
  0
LINE
  5
C2D
100
AcDbEntity
  8
V0-OBRYS
100
AcDbLine
 10
216.331996
 20
-251.306991
 30
0.0
 11
415.800289
 21
160.486151
 31
0.0
  0
LINE
  5
C2E
100
AcDbEntity
  8
V0-OBRYS
100
AcDbLine
 10
225.214923
 20
-255.899769
 30
0.0
 11
424.683216
 21
155.893373
 31
0.0
  0
ARC
  5
C31
100
AcDbEntity
  8
V0-OBRYS
100
AcDbCircle
 10
220.77346
 20
-253.60338
 30
0.0
 40
5.021326
100
AcDbArc
 50
147.37699
 51
337.94198
  0
ARC
  5
C32
100
AcDbEntity
  8
V0-OBRYS
100
AcDbCircle
 10
681.890533
 20
-253.60338
 30
0.0
 40
5.021326
100
AcDbArc
 50
202.05802
 51
32.62301
  0
ARC
  5
C35
100
AcDbEntity
  8
V0-OBRYS
100
AcDbCircle
 10
967.560682
 20
188.693009
 30
0.0
 40
5.0
100
AcDbArc
 50
0.0
 51
180.0
  0
LINE
  5
C37
100
AcDbEntity
  8
V0-OBRYS
100
AcDbLine
 10
1392.560682
 20
158.693009
 30
0.0
 11
1392.560682
 21
-221.306991
 31
0.0
  0
LINE
  5
C38
100
AcDbEntity
  8
V0-OBRYS
100
AcDbLine
 10
1402.560682
 20
158.693009
 30
0.0
 11
1402.560682
 21
-221.306991
 31
0.0
  0
LINE
  5
C3A
100
AcDbEntity
  8
V0-OBRYS
100
AcDbLine
 10
1372.560682
 20
-251.306991
 30
0.0
 11
1294.63175
 21
-251.306991
 31
0.0
  0
LINE
  5
C3B
100
AcDbEntity
  8
V0-OBRYS
100
AcDbLine
 10
1372.560682
 20
-241.306991
 30
0.0
 11
1295.460177
 21
-241.306991
 31
0.0
  0
ARC
  5
C3C
100
AcDbEntity
  8
V0-OBRYS
100
AcDbCircle
 10
1372.560682
 20
-221.306991
 30
0.0
 40
30.0
100
AcDbArc
 50
270.0
 51
0.0
  0
ARC
  5
C3D
100
AcDbEntity
  8
V0-OBRYS
100
AcDbCircle
 10
1372.560682
 20
-221.306991
 30
0.0
 40
20.0
100
AcDbArc
 50
270.0
 51
0.0
  0
LINE
  5
C3E
100
AcDbEntity
  8
V0-OBRYS
100
AcDbLine
 10
1266.347478
 20
-221.306991
 30
0.0
 11
1182.560682
 21
-221.306991
 31
0.0
  0
LINE
  5
C3F
100
AcDbEntity
  8
V0-OBRYS
100
AcDbLine
 10
1265.519051
 20
-231.306991
 30
0.0
 11
1182.560682
 21
-231.306991
 31
0.0
  0
ARC
  5
C40
100
AcDbEntity
  8
V0-OBRYS
100
AcDbCircle
 10
1294.63175
 20
-236.306991
 30
0.0
 40
15.0
100
AcDbArc
 50
225.0
 51
270.0
  0
LINE
  5
C41
100
AcDbEntity
  8
V0-OBRYS
100
AcDbLine
 10
1290.510429
 20
-239.256738
 30
0.0
 11
1276.95408
 21
-225.700389
 31
0.0
  0
ARC
  5
C42
100
AcDbEntity
  8
V0-OBRYS
100
AcDbCircle
 10
1295.460177
 20
-234.306991
 30
0.0
 40
7.0
100
AcDbArc
 50
225.0
 51
270.0
  0
LINE
  5
C43
100
AcDbEntity
  8
V0-OBRYS
100
AcDbLine
 10
1284.025148
 20
-246.913593
 30
0.0
 11
1270.468799
 21
-233.357243
 31
0.0
  0
ARC
  5
C44
100
AcDbEntity
  8
V0-OBRYS
100
AcDbCircle
 10
1266.347478
 20
-236.306991
 30
0.0
 40
15.0
100
AcDbArc
 50
45.0
 51
90.0
  0
ARC
  5
C45
100
AcDbEntity
  8
V0-OBRYS
100
AcDbCircle
 10
1265.519051
 20
-238.306991
 30
0.0
 40
7.0
100
AcDbArc
 50
45.0
 51
90.0
  0
ARC
  5
C46
100
AcDbEntity
  8
V0-OBRYS
100
AcDbCircle
 10
1397.560682
 20
188.693009
 30
0.0
 40
5.0
100
AcDbArc
 50
0.0
 51
180.0
  0
MLINE
  5
C47
100
AcDbEntity
  8
V0-OBRYS
100
AcDbMline
  2
STANDARD
340
1B
 40
-10.0
 70
     0
 71
     1
 72
     2
 73
     2
 10
1402.560681922932
 20
158.6930090662976
 30
0.0
210
0.0
220
0.0
230
1.0
 11
1402.560681922932
 21
158.6930090662976
 31
0.0
 12
0.0
 22
1.0
 32
0.0
 13
1.0
 23
1.224606353822377E-16
 33
0.0
 74
     2
 41
0.0
 41
0.0
 75
     0
 74
     2
 41
-10.0
 41
0.0
 75
     0
 11
1402.560681922932
 21
188.6930090662976
 31
0.0
 12
0.0
 22
1.0
 32
0.0
 13
1.0
 23
1.224606353822377E-16
 33
0.0
 74
     2
 41
0.0
 41
0.0
 75
     0
 74
     2
 41
-10.0
 41
0.0
 75
     0
  0
LINE
  5
C86
100
AcDbEntity
  8
V0-VYPLNE
100
AcDbLine
 10
581.116492
 20
142.115038
 30
0.0
 11
313.804241
 21
142.115038
 31
0.0
  0
LINE
  5
C87
100
AcDbEntity
  8
V0-VYPLNE
100
AcDbLine
 10
1182.560682
 20
-80.972814
 30
0.0
 11
1182.560682
 21
321.263445
 31
0.0
  0
CIRCLE
  5
C89
100
AcDbEntity
  8
V0-OBRYS
100
AcDbCircle
 10
1182.560682
 20
142.115038
 30
0.0
 40
157.5
  0
CIRCLE
  5
C8B
100
AcDbEntity
  8
V0-OBRYS
100
AcDbCircle
 10
1182.560682
 20
142.115038
 30
0.0
 40
205.988698
  0
LINE
  5
C8C
100
AcDbEntity
  8
V0-OBRYS
100
AcDbLine
 10
346.331996
 20
-15.384962
 30
0.0
 11
556.331996
 21
-15.384962
 31
0.0
  0
LINE
  5
C8D
100
AcDbEntity
  8
V0-OBRYS
100
AcDbLine
 10
346.331996
 20
299.615038
 30
0.0
 11
556.331996
 21
299.615038
 31
0.0
  0
LINE
  5
C8E
100
AcDbEntity
  8
V0-OBRYS
100
AcDbLine
 10
451.331996
 20
-15.384962
 30
0.0
 11
346.331996
 21
-15.384962
 31
0.0
  0
LINE
  5
C8F
100
AcDbEntity
  8
V0-OBRYS
100
AcDbLine
 10
346.331996
 20
-63.873659
 30
0.0
 11
346.331996
 21
-5.859126
 31
0.0
  0
LINE
  5
C90
100
AcDbEntity
  8
V0-OBRYS
100
AcDbLine
 10
556.331996
 20
-15.384962
 30
0.0
 11
556.331996
 21
-5.866939
 31
0.0
  0
LINE
  5
C91
100
AcDbEntity
  8
V0-OBRYS
100
AcDbLine
 10
339.331996
 20
348.103736
 30
0.0
 11
346.331996
 21
348.103736
 31
0.0
  0
LINE
  5
C92
100
AcDbEntity
  8
V0-OBRYS
100
AcDbLine
 10
339.331996
 20
-63.873659
 30
0.0
 11
346.331996
 21
-63.873659
 31
0.0
  0
LINE
  5
C93
100
AcDbEntity
  8
V0-OBRYS
100
AcDbLine
 10
346.331996
 20
348.103736
 30
0.0
 11
339.331996
 21
348.103736
 31
0.0
  0
LINE
  5
C94
100
AcDbEntity
  8
V0-OBRYS
100
AcDbLine
 10
346.331996
 20
348.103736
 30
0.0
 11
339.331996
 21
348.103736
 31
0.0
  0
LINE
  5
C95
100
AcDbEntity
  8
V0-OBRYS
100
AcDbLine
 10
339.331996
 20
348.103736
 30
0.0
 11
339.331996
 21
2.620868
 31
0.0
  0
LINE
  5
C96
100
AcDbEntity
  8
V0-OBRYS
100
AcDbLine
 10
556.331996
 20
17.072047
 30
0.0
 11
556.331996
 21
299.615038
 31
0.0
  0
LINE
  5
C97
100
AcDbEntity
  8
V0-OBRYS
100
AcDbLine
 10
346.331996
 20
17.072047
 30
0.0
 11
346.331996
 21
348.103736
 31
0.0
  0
LINE
  5
C98
100
AcDbEntity
  8
V0-OBRYS
100
AcDbLine
 10
339.331996
 20
-20.310305
 30
0.0
 11
339.331996
 21
-63.873659
 31
0.0
  0
LINE
  5
C99
100
AcDbEntity
  8
V0-VYPLNE
100
AcDbLine
 10
1423.894692
 20
142.115038
 30
0.0
 11
939.633372
 21
142.115038
 31
0.0
  0
ELLIPSE
  5
CC9
100
AcDbEntity
  8
V0-OBRYS
100
AcDbEllipse
 10
1181.764032
 20
142.115038
 30
0.0
 11
-0.000000000001283
 21
107.2965952462241
 31
0.0
210
0.0
220
0.0
230
-1.0
 40
0.986698
 41
0.0
 42
6.283185307179586
  0
LINE
  5
CCA
100
AcDbEntity
  8
V0-OBRYS
100
AcDbLine
 10
1181.764032
 20
142.115038
 30
0.0
 11
1284.872322
 21
37.616712
 31
0.0
  0
LINE
  5
CCB
100
AcDbEntity
  8
V0-OBRYS
100
AcDbLine
 10
1181.764032
 20
142.115038
 30
0.0
 11
1327.581174
 21
142.115038
 31
0.0
  0
LINE
  5
CCC
100
AcDbEntity
  8
V0-OBRYS
100
AcDbLine
 10
1181.764032
 20
142.115038
 30
0.0
 11
1284.872322
 21
246.613365
 31
0.0
  0
ELLIPSE
  5
CCD
100
AcDbEntity
  8
V0-OBRYS
100
AcDbEllipse
 10
1181.764032
 20
142.115038
 30
0.0
 11
-0.0000000000013846
 21
149.1312991815591
 31
0.0
210
0.0
220
0.0
230
-1.0
 40
0.986698
 41
0.0
 42
6.283185307179586
  0
ELLIPSE
  5
CCE
100
AcDbEntity
  8
V0-OBRYS
100
AcDbEllipse
 10
1181.764032
 20
142.115038
 30
0.0
 11
-0.0000000000035505
 21
155.0895784668685
 31
0.0
210
0.0
220
0.0
230
-1.0
 40
0.986698
 41
0.0
 42
6.283185307179586
  0
ELLIPSE
  5
CCF
100
AcDbEntity
  8
V0-OBRYS
100
AcDbEllipse
 10
1181.764032
 20
142.115038
 30
0.0
 11
-0.0000000000009812
 21
61.38045796545354
 31
0.0
210
0.0
220
0.0
230
-1.0
 40
0.986698
 41
0.0
 42
6.283185307179586
  0
ELLIPSE
  5
CD0
100
AcDbEntity
  8
V0-OBRYS
100
AcDbEllipse
 10
1181.764032
 20
142.115038
 30
0.0
 11
-0.0000000000001742
 21
18.52539569375986
 31
0.0
210
0.0
220
0.0
230
-1.0
 40
0.986698
 41
0.0
 42
6.283185307179586
  0
LINE
  5
CD1
100
AcDbEntity
  8
V0-OBRYS
100
AcDbLine
 10
1181.764032
 20
142.115038
 30
0.0
 11
1181.764032
 21
289.89799
 31
0.0
  0
LINE
  5
CD2
100
AcDbEntity
  8
V0-OBRYS
100
AcDbLine
 10
1181.764032
 20
142.115038
 30
0.0
 11
1078.655742
 21
246.613365
 31
0.0
  0
LINE
  5
CD3
100
AcDbEntity
  8
V0-OBRYS
100
AcDbLine
 10
1181.764032
 20
142.115038
 30
0.0
 11
1035.94689
 21
142.115038
 31
0.0
  0
LINE
  5
CD4
100
AcDbEntity
  8
V0-OBRYS
100
AcDbLine
 10
1181.764032
 20
142.115038
 30
0.0
 11
1078.655742
 21
37.616712
 31
0.0
  0
LINE
  5
CD5
100
AcDbEntity
  8
V0-OBRYS
100
AcDbLine
 10
1181.764032
 20
142.115038
 30
0.0
 11
1181.764032
 21
-5.667913
 31
0.0
  0
DIMENSION
  5
CFA
100
AcDbEntity
  8
V0-KOTY
100
AcDbDimension
  2
*D20
 10
693.819833
 20
-15.384962
 30
0.0
 11
670.819833
 21
142.115038
 31
0.0
 70
    32
  1
%%c<>
  3
ED40
100
AcDbAlignedDimension
 13
556.331996
 23
299.615038
 33
0.0
 14
556.331996
 24
-15.384962
 34
0.0
 50
90.0
100
AcDbRotatedDimension
1001
ACAD
1000
DSTYLE
1002
{
1070
    40
1040
1.0
1002
}
  0
DIMENSION
  5
D14
100
AcDbEntity
  8
V0-KOTY
100
AcDbDimension
  2
*D21
 10
686.331996
 20
-343.789884
 30
0.0
 11
451.438157
 21
-320.789884
 31
0.0
 70
    32
  3
ED40
100
AcDbAlignedDimension
 13
216.544318
 23
-250.896337
 33
0.0
 14
686.331996
 24
-251.306991
 34
0.0
100
AcDbRotatedDimension
1001
ACAD
1000
DSTYLE
1002
{
1070
    40
1040
1.0
1002
}
  0
DIMENSION
  5
D21
100
AcDbEntity
  8
V0-KOTY
100
AcDbDimension
  2
*D22
 10
1402.560682
 20
-330.474588
 30
0.0
 11
1182.560682
 21
-307.474588
 31
0.0
 70
    32
  1
439
  3
ED40
100
AcDbAlignedDimension
 13
962.560682
 23
-221.306991
 33
0.0
 14
1402.560682
 24
-221.306991
 34
0.0
100
AcDbRotatedDimension
1001
ACAD
1000
DSTYLE
1002
{
1070
    40
1040
1.0
1002
}
  0
DIMENSION
  5
D2E
100
AcDbEntity
  8
V0-KOTY
100
AcDbDimension
  2
*D23
 10
124.096075
 20
-258.491444
 30
0.0
 11
101.096075
 21
-58.188203
 31
0.0
 70
    32
  1
400
  3
ED40
100
AcDbAlignedDimension
 13
313.804241
 23
142.115038
 33
0.0
 14
219.624308
 24
-258.491444
 34
0.0
 50
90.0
100
AcDbRotatedDimension
1001
ACAD
1000
DSTYLE
1002
{
1070
    40
1040
1.0
1002
}
  0
LINE
  5
D2F
100
AcDbEntity
  8
V0-OBRYS
100
AcDbLine
 10
393.965227
 20
299.615038
 30
0.0
 11
393.965227
 21
361.920638
 31
0.0
  0
LINE
  5
D30
100
AcDbEntity
  8
V0-OBRYS
100
AcDbLine
 10
393.965227
 20
361.920638
 30
0.0
 11
527.233937
 21
361.920638
 31
0.0
  0
LINE
  5
D31
100
AcDbEntity
  8
V0-OBRYS
100
AcDbLine
 10
527.233937
 20
361.920638
 30
0.0
 11
527.233937
 21
299.615038
 31
0.0
  0
DIMENSION
  5
D3E
100
AcDbEntity
  8
V0-KOTY
100
AcDbDimension
  2
*D24
 10
790.439651
 20
-255.94584
 30
0.0
 11
767.435714
 21
52.987399
 31
0.0
 70
    32
  1
642
  3
ED40
100
AcDbAlignedDimension
 13
527.233937
 23
361.920638
 33
0.0
 14
686.331996
 24
-255.94584
 34
0.0
 50
90.0
100
AcDbRotatedDimension
1001
ACAD
1000
DSTYLE
1002
{
1070
    40
1040
1.0
1002
}
  0
DIMENSION
  5
D63
100
AcDbEntity
  8
V0-KOTY
100
AcDbDimension
  2
*D25
 10
556.331996
 20
438.483576
 30
0.0
 11
451.331996
 21
461.487513
 31
0.0
 70
    32
  1
211
  3
ED40
100
AcDbAlignedDimension
 13
346.331996
 23
299.615038
 33
0.0
 14
556.331996
 24
299.615038
 34
0.0
100
AcDbRotatedDimension
1001
ACAD
1000
DSTYLE
1002
{
1070
    40
1040
1.0
1002
}
  0
LINE
  5
D86
100
AcDbEntity
  8
V0-OBRYS
100
AcDbLine
 10
556.331996
 20
-951.348155
 30
0.0
 11
556.331996
 21
-636.348155
 31
0.0
  0
LINE
  5
D87
100
AcDbEntity
  8
V0-OBRYS
100
AcDbLine
 10
339.331996
 20
-587.859458
 30
0.0
 11
339.331996
 21
-999.836853
 31
0.0
  0
LINE
  5
D88
100
AcDbEntity
  8
V0-OBRYS
100
AcDbLine
 10
346.331996
 20
-999.836853
 30
0.0
 11
346.331996
 21
-587.859458
 31
0.0
  0
LINE
  5
D89
100
AcDbEntity
  8
V0-VYPLNE
100
AcDbLine
 10
581.116492
 20
-793.848155
 30
0.0
 11
325.811199
 21
-793.848155
 31
0.0
  0
LINE
  5
D8A
100
AcDbEntity
  8
V0-OBRYS
100
AcDbLine
 10
346.331996
 20
-951.348155
 30
0.0
 11
556.331996
 21
-951.348155
 31
0.0
  0
LINE
  5
D8D
100
AcDbEntity
  8
V0-OBRYS
100
AcDbLine
 10
339.331996
 20
-999.836853
 30
0.0
 11
346.331996
 21
-999.836853
 31
0.0
  0
LINE
  5
D8E
100
AcDbEntity
  8
V0-OBRYS
100
AcDbLine
 10
451.331996
 20
-951.348155
 30
0.0
 11
346.331996
 21
-951.348155
 31
0.0
  0
LINE
  5
D92
100
AcDbEntity
  8
V0-OBRYS
100
AcDbLine
 10
393.965227
 20
-762.695355
 30
0.0
 11
527.233937
 21
-762.695355
 31
0.0
  0
LINE
  5
D93
100
AcDbEntity
  8
V0-OBRYS
100
AcDbLine
 10
346.331996
 20
-636.348155
 30
0.0
 11
556.331996
 21
-636.348155
 31
0.0
  0
LINE
  5
D94
100
AcDbEntity
  8
V0-OBRYS
100
AcDbLine
 10
346.331996
 20
-587.859458
 30
0.0
 11
339.331996
 21
-587.859458
 31
0.0
  0
LINE
  5
D95
100
AcDbEntity
  8
V0-OBRYS
100
AcDbLine
 10
339.331996
 20
-587.859458
 30
0.0
 11
346.331996
 21
-587.859458
 31
0.0
  0
LINE
  5
D96
100
AcDbEntity
  8
V0-OBRYS
100
AcDbLine
 10
346.331996
 20
-587.859458
 30
0.0
 11
339.331996
 21
-587.859458
 31
0.0
  0
LINE
  5
D97
100
AcDbEntity
  8
V0-OBRYS
100
AcDbLine
 10
393.965227
 20
-825.000955
 30
0.0
 11
393.965227
 21
-762.695355
 31
0.0
  0
LINE
  5
D98
100
AcDbEntity
  8
V0-OBRYS
100
AcDbLine
 10
527.233937
 20
-762.695355
 30
0.0
 11
527.233937
 21
-825.000955
 31
0.0
  0
LINE
  5
D99
100
AcDbEntity
  8
V0-OBRYS
100
AcDbLine
 10
393.965227
 20
-825.000955
 30
0.0
 11
527.233937
 21
-825.000955
 31
0.0
  0
LINE
  5
DA4
100
AcDbEntity
  8
V0-OBRYS
100
AcDbLine
 10
451.331996
 20
-636.348155
 30
0.0
 11
451.331996
 21
-584.091702
 31
0.0
  0
LINE
  5
DA5
100
AcDbEntity
  8
V0-OBRYS
100
AcDbLine
 10
479.759653
 20
-636.348155
 30
0.0
 11
479.759653
 21
-584.091702
 31
0.0
  0
ARC
  5
DA9
100
AcDbEntity
  8
V0-OBRYS
100
AcDbCircle
 10
686.119674
 20
-579.091702
 30
0.0
 40
5.0
100
AcDbArc
 50
270.0
 51
90.0
  0
ARC
  5
DAC
100
AcDbEntity
  8
V0-OBRYS
100
AcDbCircle
 10
686.119674
 20
-1008.604608
 30
0.0
 40
5.0
100
AcDbArc
 50
270.0
 51
90.0
  0
LINE
  5
DAF
100
AcDbEntity
  8
V0-OBRYS
100
AcDbLine
 10
264.290205
 20
-1013.604608
 30
0.0
 11
686.119674
 21
-1013.604608
 31
0.0
  0
LINE
  5
DB0
100
AcDbEntity
  8
V0-OBRYS
100
AcDbLine
 10
264.290205
 20
-1003.604608
 30
0.0
 11
686.119674
 21
-1003.604608
 31
0.0
  0
LINE
  5
DB1
100
AcDbEntity
  8
V0-OBRYS
100
AcDbLine
 10
680.981951
 20
-1003.604608
 30
0.0
 11
680.981951
 21
-584.091702
 31
0.0
  0
LINE
  5
DB2
100
AcDbEntity
  8
V0-OBRYS
100
AcDbLine
 10
690.981951
 20
-1008.721091
 30
0.0
 11
690.981951
 21
-577.926257
 31
0.0
  0
LINE
  5
DB3
100
AcDbEntity
  8
V0-OBRYS
100
AcDbLine
 10
264.290205
 20
-574.091702
 30
0.0
 11
686.119674
 21
-574.091702
 31
0.0
  0
LINE
  5
DB4
100
AcDbEntity
  8
V0-OBRYS
100
AcDbLine
 10
264.290205
 20
-584.091702
 30
0.0
 11
686.119674
 21
-584.091702
 31
0.0
  0
LINE
  5
DB9
100
AcDbEntity
  8
V0-OBRYS
100
AcDbLine
 10
226.143948
 20
-961.568701
 30
0.0
 11
246.379939
 21
-902.794698
 31
0.0
  0
LINE
  5
DBA
100
AcDbEntity
  8
V0-OBRYS
100
AcDbLine
 10
235.680512
 20
-964.577678
 30
0.0
 11
256.366205
 21
-904.378403
 31
0.0
  0
LINE
  5
DBB
100
AcDbEntity
  8
V0-OBRYS
100
AcDbLine
 10
226.143948
 20
-626.127609
 30
0.0
 11
246.422522
 21
-690.397936
 31
0.0
  0
LINE
  5
DBC
100
AcDbEntity
  8
V0-OBRYS
100
AcDbLine
 10
235.680512
 20
-623.118633
 30
0.0
 11
256.436275
 21
-688.901348
 31
0.0
  0
ARC
  5
DC2
100
AcDbEntity
  8
V0-OBRYS
100
AcDbCircle
 10
264.290205
 20
-614.091702
 30
0.0
 40
40.0
100
AcDbArc
 50
90.0
 51
197.511528
  0
ARC
  5
DC3
100
AcDbEntity
  8
V0-OBRYS
100
AcDbCircle
 10
264.290205
 20
-973.604608
 30
0.0
 40
40.0
100
AcDbArc
 50
162.488472
 51
270.0
  0
ARC
  5
DC4
100
AcDbEntity
  8
V0-OBRYS
100
AcDbCircle
 10
264.290205
 20
-614.091702
 30
0.0
 40
30.0
100
AcDbArc
 50
90.0
 51
197.511528
  0
ARC
  5
DC5
100
AcDbEntity
  8
V0-OBRYS
100
AcDbCircle
 10
264.290205
 20
-973.604608
 30
0.0
 40
30.0
100
AcDbArc
 50
162.488472
 51
270.0
  0
LINE
  5
DC6
100
AcDbEntity
  8
V0-OBRYS
100
AcDbLine
 10
451.331996
 20
-951.348155
 30
0.0
 11
451.331996
 21
-1003.604608
 31
0.0
  0
LINE
  5
DC7
100
AcDbEntity
  8
V0-OBRYS
100
AcDbLine
 10
479.759653
 20
-951.348155
 30
0.0
 11
479.759653
 21
-1003.604608
 31
0.0
  0
LINE
  5
DCA
100
AcDbEntity
  8
V0-OBRYS
100
AcDbLine
 10
257.825388
 20
-698.19597
 30
0.0
 11
257.755318
 21
-895.619164
 31
0.0
  0
LINE
  5
DCB
100
AcDbEntity
  8
V0-OBRYS
100
AcDbLine
 10
247.811635
 20
-699.692558
 30
0.0
 11
247.769052
 21
-894.035459
 31
0.0
  0
ARC
  5
DCC
100
AcDbEntity
  8
V0-OBRYS
100
AcDbCircle
 10
217.812829
 20
-699.424867
 30
0.0
 40
30.0
100
AcDbArc
 50
359.48874
 51
17.511528
  0
ARC
  5
DCD
100
AcDbEntity
  8
V0-OBRYS
100
AcDbCircle
 10
217.770246
 20
-893.767767
 30
0.0
 40
30.0
100
AcDbArc
 50
342.488472
 51
359.48874
  0
ARC
  5
DCE
100
AcDbEntity
  8
V0-OBRYS
100
AcDbCircle
 10
227.756512
 20
-895.351473
 30
0.0
 40
30.0
100
AcDbArc
 50
342.488472
 51
359.48874
  0
ARC
  5
DCF
100
AcDbEntity
  8
V0-OBRYS
100
AcDbCircle
 10
227.826582
 20
-697.928278
 30
0.0
 40
30.0
100
AcDbArc
 50
359.48874
 51
17.511528
  0
ENDSEC
  0
SECTION
  2
OBJECTS
  0
DICTIONARY
  5
1A
100
AcDbDictionary
  3
ACAD_GROUP
350
18
  3
ACAD_MLINESTYLE
350
19
  0
DICTIONARY
  5
18
102
{ACAD_REACTORS
330
1A
102
}
100
AcDbDictionary
  0
DICTIONARY
  5
19
102
{ACAD_REACTORS
330
1A
102
}
100
AcDbDictionary
  3
STANDARD
350
1B
  0
MLINESTYLE
  5
1B
102
{ACAD_REACTORS
330
19
102
}
100
AcDbMlineStyle
  2
STANDARD
 70
     0
  3

 62
     0
 51
90.0
 52
90.0
 71
     2
 49
0.5
 62
   256
  6
BYLAYER
 49
-0.5
 62
   256
  6
BYLAYER
  0
ENDSEC
  0
EOF
