  0
SECTION
  2
HEADER
  9
$ACADVER
  1
AC1014
  9
$ACADMAINTVER
 70
     0
  9
$DWGCODEPAGE
  3
ANSI_1250
  9
$INSBASE
 10
0.0
 20
0.0
 30
0.0
  9
$EXTMIN
 10
-52.1108
 20
-300.723382
 30
0.0
  9
$EXTMAX
 10
267.113484
 20
159.545098
 30
0.0
  9
$LIMMIN
 10
0.0
 20
0.0
  9
$LIMMAX
 10
420.0
 20
297.0
  9
$ORTHOMODE
 70
     1
  9
$REGENMODE
 70
     1
  9
$FILLMODE
 70
     1
  9
$QTEXTMODE
 70
     0
  9
$MIRRTEXT
 70
     1
  9
$DRAGMODE
 70
     2
  9
$LTSCALE
 40
1.0
  9
$OSMODE
 70
    45
  9
$ATTMODE
 70
     1
  9
$TEXTSIZE
 40
40.0
  9
$TRACEWID
 40
1.0
  9
$TEXTSTYLE
  7
ED40
  9
$CLAYER
  8
V0-OBRYS
  9
$CELTYPE
  6
BYLAYER
  9
$CECOLOR
 62
   256
  9
$CELTSCALE
 40
1.0
  9
$DELOBJ
 70
     1
  9
$DISPSILH
 70
     0
  9
$DIMSCALE
 40
1.0
  9
$DIMASZ
 40
15.0
  9
$DIMEXO
 40
1.0
  9
$DIMDLI
 40
3.75
  9
$DIMRND
 40
0.0
  9
$DIMDLE
 40
0.0
  9
$DIMEXE
 40
1.25
  9
$DIMTP
 40
0.0
  9
$DIMTM
 40
0.0
  9
$DIMTXT
 40
10.0
  9
$DIMCEN
 40
2.0
  9
$DIMTSZ
 40
0.0
  9
$DIMTOL
 70
     0
  9
$DIMLIM
 70
     0
  9
$DIMTIH
 70
     0
  9
$DIMTOH
 70
     0
  9
$DIMSE1
 70
     0
  9
$DIMSE2
 70
     0
  9
$DIMTAD
 70
     1
  9
$DIMZIN
 70
     8
  9
$DIMBLK
  1

  9
$DIMASO
 70
     1
  9
$DIMSHO
 70
     1
  9
$DIMPOST
  1

  9
$DIMAPOST
  1

  9
$DIMALT
 70
     0
  9
$DIMALTD
 70
     4
  9
$DIMALTF
 40
0.0394
  9
$DIMLFAC
 40
1.0
  9
$DIMTOFL
 70
     1
  9
$DIMTVP
 40
0.0
  9
$DIMTIX
 70
     0
  9
$DIMSOXD
 70
     0
  9
$DIMSAH
 70
     1
  9
$DIMBLK1
  1
_OPEN
  9
$DIMBLK2
  1
_OPEN
  9
$DIMSTYLE
  2
ED10
  9
$DIMCLRD
 70
     0
  9
$DIMCLRE
 70
     0
  9
$DIMCLRT
 70
     0
  9
$DIMTFAC
 40
1.0
  9
$DIMGAP
 40
1.5
  9
$DIMJUST
 70
     0
  9
$DIMSD1
 70
     0
  9
$DIMSD2
 70
     0
  9
$DIMTOLJ
 70
     1
  9
$DIMTZIN
 70
     8
  9
$DIMALTZ
 70
     0
  9
$DIMALTTZ
 70
     0
  9
$DIMFIT
 70
     3
  9
$DIMUPT
 70
     0
  9
$DIMUNIT
 70
     2
  9
$DIMDEC
 70
     0
  9
$DIMTDEC
 70
     1
  9
$DIMALTU
 70
     8
  9
$DIMALTTD
 70
     4
  9
$DIMTXSTY
  7
ED10
  9
$DIMAUNIT
 70
     0
  9
$LUNITS
 70
     2
  9
$LUPREC
 70
     4
  9
$SKETCHINC
 40
1.0
  9
$FILLETRAD
 40
3.0
  9
$AUNITS
 70
     0
  9
$AUPREC
 70
     0
  9
$MENU
  1
.
  9
$ELEVATION
 40
0.0
  9
$PELEVATION
 40
0.0
  9
$THICKNESS
 40
0.0
  9
$LIMCHECK
 70
     0
  9
$BLIPMODE
 70
     0
  9
$CHAMFERA
 40
0.5
  9
$CHAMFERB
 40
0.5
  9
$CHAMFERC
 40
20.0
  9
$CHAMFERD
 40
0.0
  9
$SKPOLY
 70
     1
  9
$TDCREATE
 40
2451196.643769328
  9
$TDUPDATE
 40
2453315.817873970
  9
$TDINDWG
 40
0.6102536690
  9
$TDUSRTIMER
 40
0.6102536690
  9
$USRTIMER
 70
     1
  9
$ANGBASE
 50
0.0
  9
$ANGDIR
 70
     0
  9
$PDMODE
 70
     3
  9
$PDSIZE
 40
15.0
  9
$PLINEWID
 40
0.0
  9
$COORDS
 70
     1
  9
$SPLFRAME
 70
     0
  9
$SPLINETYPE
 70
     6
  9
$SPLINESEGS
 70
     8
  9
$ATTDIA
 70
     0
  9
$ATTREQ
 70
     1
  9
$HANDLING
 70
     1
  9
$HANDSEED
  5
1780
  9
$SURFTAB1
 70
     6
  9
$SURFTAB2
 70
     6
  9
$SURFTYPE
 70
     6
  9
$SURFU
 70
     6
  9
$SURFV
 70
     6
  9
$UCSNAME
  2

  9
$UCSORG
 10
351.1562258676754
 20
-28.9544709378133
 30
0.0
  9
$UCSXDIR
 10
1.0
 20
0.0
 30
0.0
  9
$UCSYDIR
 10
0.0
 20
1.0
 30
0.0
  9
$PUCSNAME
  2

  9
$PUCSORG
 10
0.0
 20
0.0
 30
0.0
  9
$PUCSXDIR
 10
1.0
 20
0.0
 30
0.0
  9
$PUCSYDIR
 10
0.0
 20
1.0
 30
0.0
  9
$USERI1
 70
     0
  9
$USERI2
 70
     0
  9
$USERI3
 70
     0
  9
$USERI4
 70
     0
  9
$USERI5
 70
     0
  9
$USERR1
 40
0.0
  9
$USERR2
 40
0.0
  9
$USERR3
 40
0.0
  9
$USERR4
 40
0.0
  9
$USERR5
 40
0.0
  9
$WORLDVIEW
 70
     1
  9
$SHADEDGE
 70
     3
  9
$SHADEDIF
 70
    70
  9
$TILEMODE
 70
     1
  9
$MAXACTVP
 70
    48
  9
$PINSBASE
 10
0.0
 20
0.0
 30
0.0
  9
$PLIMCHECK
 70
     0
  9
$PEXTMIN
 10
1.000000E+20
 20
1.000000E+20
 30
1.000000E+20
  9
$PEXTMAX
 10
-1.000000E+20
 20
-1.000000E+20
 30
-1.000000E+20
  9
$PLIMMIN
 10
0.0
 20
0.0
  9
$PLIMMAX
 10
420.0
 20
297.0
  9
$UNITMODE
 70
     0
  9
$VISRETAIN
 70
     1
  9
$PLINEGEN
 70
     0
  9
$PSLTSCALE
 70
     0
  9
$TREEDEPTH
 70
  3020
  9
$PICKSTYLE
 70
     0
  9
$CMLSTYLE
  2
STANDARD
  9
$CMLJUST
 70
     1
  9
$CMLSCALE
 40
3.0
  9
$PROXYGRAPHICS
 70
     1
  9
$MEASUREMENT
 70
     1
  0
ENDSEC
  0
SECTION
  2
CLASSES
  0
CLASS
  1
DICTIONARYVAR
  2
AcDbDictionaryVar
  3
"AutoCAD"
 90
        0
280
     0
281
     0
  0
CLASS
  1
LWPOLYLINE
  2
AcDbPolyline
  3
"AutoCAD"
 90
        0
280
     0
281
     1
  0
CLASS
  1
HATCH
  2
AcDbHatch
  3
"ACAD_SEDONA"
 90
        0
280
     0
281
     1
  0
ENDSEC
  0
SECTION
  2
TABLES
  0
TABLE
  2
VPORT
  5
8
100
AcDbSymbolTable
 70
     8
  0
VPORT
  5
177F
100
AcDbSymbolTableRecord
100
AcDbViewportTableRecord
  2
*ACTIVE
 70
     0
 10
0.0
 20
0.0
 11
1.0
 21
1.0
 12
107.501342
 22
-70.589142
 13
0.0
 23
0.0
 14
10.0
 24
10.0
 15
10.0
 25
10.0
 16
0.0
 26
0.0
 36
1.0
 17
0.0
 27
0.0
 37
0.0
 40
465.630831
 41
1.523346
 42
50.0
 43
0.0
 44
0.0
 50
0.0
 51
0.0
 71
     0
 72
   100
 73
     1
 74
     1
 75
     0
 76
     0
 77
     0
 78
     0
  0
ENDTAB
  0
TABLE
  2
LTYPE
  5
5
100
AcDbSymbolTable
 70
     3
  0
LTYPE
  5
14
100
AcDbSymbolTableRecord
100
AcDbLinetypeTableRecord
  2
BYBLOCK
 70
     0
  3

 72
    65
 73
     0
 40
0.0
  0
LTYPE
  5
15
100
AcDbSymbolTableRecord
100
AcDbLinetypeTableRecord
  2
BYLAYER
 70
     0
  3

 72
    65
 73
     0
 40
0.0
  0
LTYPE
  5
16
100
AcDbSymbolTableRecord
100
AcDbLinetypeTableRecord
  2
CONTINUOUS
 70
     0
  3
Solid line
 72
    65
 73
     0
 40
0.0
  0
LTYPE
  5
7F
100
AcDbSymbolTableRecord
100
AcDbLinetypeTableRecord
  2
DASHDOT
 70
     0
  3
Dash dot __ . __ . __ . __ . __ . __ . __ . __
 72
    65
 73
     4
 40
25.4
 49
12.7
 74
     0
 49
-6.35
 74
     0
 49
0.0
 74
     0
 49
-6.35
 74
     0
  0
LTYPE
  5
80
100
AcDbSymbolTableRecord
100
AcDbLinetypeTableRecord
  2
DASHED
 70
     0
  3
Dashed __ __ __ __ __ __ __ __ __ __ __ __ __ _
 72
    65
 73
     2
 40
19.05
 49
12.7
 74
     0
 49
-6.35
 74
     0
  0
ENDTAB
  0
TABLE
  2
LAYER
  5
2
100
AcDbSymbolTable
 70
     6
  0
LAYER
  5
F
100
AcDbSymbolTableRecord
100
AcDbLayerTableRecord
  2
0
 70
     0
 62
     7
  6
CONTINUOUS
  0
LAYER
  5
9E
100
AcDbSymbolTableRecord
100
AcDbLayerTableRecord
  2
DEFPOINTS
 70
     0
 62
     7
  6
CONTINUOUS
  0
LAYER
  5
377
100
AcDbSymbolTableRecord
100
AcDbLayerTableRecord
  2
V0-OBRYS
 70
     0
 62
    90
  6
CONTINUOUS
  0
LAYER
  5
378
100
AcDbSymbolTableRecord
100
AcDbLayerTableRecord
  2
V0-VYPLNE
 70
     0
 62
    63
  6
DASHDOT
  0
LAYER
  5
37A
100
AcDbSymbolTableRecord
100
AcDbLayerTableRecord
  2
V0-NAZVY
 70
     0
 62
   210
  6
CONTINUOUS
  0
LAYER
  5
559
100
AcDbSymbolTableRecord
100
AcDbLayerTableRecord
  2
V0-ZBYTEK
 70
     0
 62
    51
  6
CONTINUOUS
  0
ENDTAB
  0
TABLE
  2
STYLE
  5
3
100
AcDbSymbolTable
 70
     5
  0
STYLE
  5
10
100
AcDbSymbolTableRecord
100
AcDbTextStyleTableRecord
  2
STANDARD
 70
     0
 40
0.0
 41
1.0
 50
0.0
 71
     0
 42
2.5
  3
ISOCP
  4

  0
STYLE
  5
331
100
AcDbSymbolTableRecord
100
AcDbTextStyleTableRecord
  2
ED20
 70
     0
 40
20.0
 41
1.0
 50
0.0
 71
     0
 42
2.5
  3
ISOCP.shx
  4

  0
STYLE
  5
648
100
AcDbSymbolTableRecord
100
AcDbTextStyleTableRecord
  2
ED10
 70
     0
 40
10.0
 41
1.0
 50
0.0
 71
     0
 42
10.0
  3
ISOCP.shx
  4

  0
STYLE
  5
F38
100
AcDbSymbolTableRecord
100
AcDbTextStyleTableRecord
  2
ED30
 70
     0
 40
30.0
 41
1.0
 50
0.0
 71
     0
 42
2.5
  3
ISOCP.shx
  4

  0
STYLE
  5
F39
100
AcDbSymbolTableRecord
100
AcDbTextStyleTableRecord
  2
ED40
 70
     0
 40
40.0
 41
1.0
 50
0.0
 71
     0
 42
40.0
  3
ISOCP.shx
  4

  0
ENDTAB
  0
TABLE
  2
VIEW
  5
6
100
AcDbSymbolTable
 70
     0
  0
ENDTAB
  0
TABLE
  2
UCS
  5
7
100
AcDbSymbolTable
 70
     0
  0
ENDTAB
  0
TABLE
  2
APPID
  5
9
100
AcDbSymbolTable
 70
     1
  0
APPID
  5
11
100
AcDbSymbolTableRecord
100
AcDbRegAppTableRecord
  2
ACAD
 70
     0
  0
ENDTAB
  0
TABLE
  2
DIMSTYLE
  5
A
100
AcDbSymbolTable
 70
     5
  0
DIMSTYLE
105
1D
100
AcDbSymbolTableRecord
100
AcDbDimStyleTableRecord
  2
STANDARD
 70
     0
  3

  4

  5

  6
_OPEN
  7
_OPEN
 40
0.0
 41
15.0
 42
0.625
 43
3.75
 44
1.25
 45
0.0
 46
0.0
 47
0.0
 48
0.0
140
15.0
141
2.5
142
0.0
143
0.0394
144
1.0
145
0.0
146
1.0
147
3.0
 71
     0
 72
     0
 73
     0
 74
     0
 75
     0
 76
     0
 77
     1
 78
     8
170
     0
171
     4
172
     1
173
     1
174
     0
175
     0
176
     0
177
     0
178
     0
270
     2
271
     0
272
     1
273
     8
274
     4
340
331
275
     0
280
     0
281
     0
282
     0
283
     1
284
     8
285
     0
286
     0
287
     3
288
     0
  0
DIMSTYLE
105
397
102
{ACAD_REACTORS
330
788
330
789
330
78A
330
78B
330
799
330
79A
102
}
100
AcDbSymbolTableRecord
100
AcDbDimStyleTableRecord
  2
ED40
 70
     0
  3

  4

  5

  6
_OPEN
  7
_OPEN
 40
1.0
 41
35.0
 42
1.0
 43
3.75
 44
1.25
 45
0.0
 46
0.0
 47
0.0
 48
0.0
140
40.0
141
3.0
142
0.0
143
0.0394
144
1.0
145
0.0
146
1.0
147
4.0
 71
     0
 72
     0
 73
     0
 74
     0
 75
     0
 76
     0
 77
     1
 78
     8
170
     0
171
     4
172
     1
173
     1
174
     0
175
     0
176
     0
177
     0
178
     0
270
     2
271
     0
272
     1
273
     8
274
     4
340
F39
275
     0
280
     0
281
     0
282
     0
283
     1
284
     8
285
     0
286
     0
287
     3
288
     0
  0
DIMSTYLE
105
649
102
{ACAD_REACTORS
330
1598
330
15C4
330
160F
330
162D
102
}
100
AcDbSymbolTableRecord
100
AcDbDimStyleTableRecord
  2
ED10
 70
     0
  3

  4

  5

  6
_OPEN
  7
_OPEN
 40
1.0
 41
15.0
 42
1.0
 43
3.75
 44
1.25
 45
0.0
 46
0.0
 47
0.0
 48
0.0
140
10.0
141
2.0
142
0.0
143
0.0394
144
1.0
145
0.0
146
1.0
147
1.5
 71
     0
 72
     0
 73
     0
 74
     0
 75
     0
 76
     0
 77
     1
 78
     8
170
     0
171
     4
172
     1
173
     1
174
     0
175
     0
176
     0
177
     0
178
     0
270
     2
271
     0
272
     1
273
     8
274
     4
340
648
275
     0
280
     0
281
     0
282
     0
283
     1
284
     8
285
     0
286
     0
287
     3
288
     0
  0
DIMSTYLE
105
FE9
100
AcDbSymbolTableRecord
100
AcDbDimStyleTableRecord
  2
ED20
 70
     0
  3

  4

  5

  6
_OPEN
  7
_OPEN
 40
1.0
 41
20.0
 42
1.0
 43
3.75
 44
1.25
 45
0.0
 46
0.0
 47
0.0
 48
0.0
140
20.0
141
3.0
142
0.0
143
0.0394
144
1.0
145
0.0
146
1.0
147
2.0
 71
     0
 72
     0
 73
     0
 74
     0
 75
     0
 76
     0
 77
     1
 78
     8
170
     0
171
     4
172
     1
173
     1
174
     0
175
     0
176
    41
177
    41
178
    41
270
     2
271
     0
272
     1
273
     8
274
     4
340
331
275
     0
280
     0
281
     0
282
     0
283
     1
284
     8
285
     0
286
     0
287
     3
288
     0
  0
DIMSTYLE
105
FEA
100
AcDbSymbolTableRecord
100
AcDbDimStyleTableRecord
  2
ED30
 70
     0
  3

  4

  5

  6
_OPEN
  7
_OPEN
 40
1.0
 41
25.0
 42
1.0
 43
3.75
 44
1.25
 45
0.0
 46
0.0
 47
0.0
 48
0.0
140
30.0
141
3.0
142
0.0
143
0.0394
144
1.0
145
0.0
146
1.0
147
4.0
 71
     0
 72
     0
 73
     0
 74
     0
 75
     0
 76
     0
 77
     1
 78
     8
170
     0
171
     4
172
     1
173
     1
174
     0
175
     0
176
     0
177
     0
178
     0
270
     2
271
     0
272
     1
273
     8
274
     4
340
F38
275
     0
280
     0
281
     0
282
     0
283
     1
284
     8
285
     0
286
     0
287
     3
288
     0
  0
ENDTAB
  0
TABLE
  2
BLOCK_RECORD
  5
1
100
AcDbSymbolTable
 70
    43
  0
BLOCK_RECORD
  5
1A
100
AcDbSymbolTableRecord
100
AcDbBlockTableRecord
  2
*MODEL_SPACE
  0
BLOCK_RECORD
  5
17
100
AcDbSymbolTableRecord
100
AcDbBlockTableRecord
  2
*PAPER_SPACE
  0
BLOCK_RECORD
  5
90
100
AcDbSymbolTableRecord
100
AcDbBlockTableRecord
  2
_OPEN
  0
BLOCK_RECORD
  5
6BC
100
AcDbSymbolTableRecord
100
AcDbBlockTableRecord
  2
*D1
  0
BLOCK_RECORD
  5
6C8
100
AcDbSymbolTableRecord
100
AcDbBlockTableRecord
  2
*D2
  0
BLOCK_RECORD
  5
6D4
100
AcDbSymbolTableRecord
100
AcDbBlockTableRecord
  2
*D3
  0
BLOCK_RECORD
  5
6E0
100
AcDbSymbolTableRecord
100
AcDbBlockTableRecord
  2
*D4
  0
BLOCK_RECORD
  5
6EC
100
AcDbSymbolTableRecord
100
AcDbBlockTableRecord
  2
*D5
  0
BLOCK_RECORD
  5
6F8
100
AcDbSymbolTableRecord
100
AcDbBlockTableRecord
  2
*D6
  0
BLOCK_RECORD
  5
704
100
AcDbSymbolTableRecord
100
AcDbBlockTableRecord
  2
*D7
  0
BLOCK_RECORD
  5
710
100
AcDbSymbolTableRecord
100
AcDbBlockTableRecord
  2
*D8
  0
BLOCK_RECORD
  5
71C
100
AcDbSymbolTableRecord
100
AcDbBlockTableRecord
  2
*D9
  0
BLOCK_RECORD
  5
728
100
AcDbSymbolTableRecord
100
AcDbBlockTableRecord
  2
*D10
  0
BLOCK_RECORD
  5
734
100
AcDbSymbolTableRecord
100
AcDbBlockTableRecord
  2
*D11
  0
BLOCK_RECORD
  5
740
100
AcDbSymbolTableRecord
100
AcDbBlockTableRecord
  2
*D12
  0
BLOCK_RECORD
  5
74E
100
AcDbSymbolTableRecord
100
AcDbBlockTableRecord
  2
IBW-200
  0
BLOCK_RECORD
  5
9D9
100
AcDbSymbolTableRecord
100
AcDbBlockTableRecord
  2
LAM
  0
BLOCK_RECORD
  5
9E6
100
AcDbSymbolTableRecord
100
AcDbBlockTableRecord
  2
TAH
  0
BLOCK_RECORD
  5
1429
100
AcDbSymbolTableRecord
100
AcDbBlockTableRecord
  2
N
  0
BLOCK_RECORD
  5
1444
100
AcDbSymbolTableRecord
100
AcDbBlockTableRecord
  2
P
  0
BLOCK_RECORD
  5
145E
100
AcDbSymbolTableRecord
100
AcDbBlockTableRecord
  2
B
  0
BLOCK_RECORD
  5
158C
100
AcDbSymbolTableRecord
100
AcDbBlockTableRecord
  2
*D25
  0
BLOCK_RECORD
  5
15B8
100
AcDbSymbolTableRecord
100
AcDbBlockTableRecord
  2
*D28
  0
BLOCK_RECORD
  5
1601
100
AcDbSymbolTableRecord
100
AcDbBlockTableRecord
  2
*D33
  0
BLOCK_RECORD
  5
1621
100
AcDbSymbolTableRecord
100
AcDbBlockTableRecord
  2
*D34
  0
BLOCK_RECORD
  5
1662
100
AcDbSymbolTableRecord
100
AcDbBlockTableRecord
  2
*D35
  0
BLOCK_RECORD
  5
16C6
100
AcDbSymbolTableRecord
100
AcDbBlockTableRecord
  2
*D36
  0
BLOCK_RECORD
  5
16D2
100
AcDbSymbolTableRecord
100
AcDbBlockTableRecord
  2
*D37
  0
BLOCK_RECORD
  5
16DE
100
AcDbSymbolTableRecord
100
AcDbBlockTableRecord
  2
*D38
  0
BLOCK_RECORD
  5
16EA
100
AcDbSymbolTableRecord
100
AcDbBlockTableRecord
  2
*D39
  0
BLOCK_RECORD
  5
171D
100
AcDbSymbolTableRecord
100
AcDbBlockTableRecord
  2
*D40
  0
BLOCK_RECORD
  5
1729
100
AcDbSymbolTableRecord
100
AcDbBlockTableRecord
  2
*D41
  0
BLOCK_RECORD
  5
1735
100
AcDbSymbolTableRecord
100
AcDbBlockTableRecord
  2
*D42
  0
ENDTAB
  0
ENDSEC
  0
SECTION
  2
BLOCKS
  0
BLOCK
  5
1B
100
AcDbEntity
  8
0
100
AcDbBlockBegin
  2
*MODEL_SPACE
 70
     0
 10
0.0
 20
0.0
 30
0.0
  3
*MODEL_SPACE
  1

  0
ENDBLK
  5
1C
100
AcDbEntity
  8
0
100
AcDbBlockEnd
  0
BLOCK
  5
18
100
AcDbEntity
 67
     1
  8
0
100
AcDbBlockBegin
  2
*PAPER_SPACE
 70
     0
 10
0.0
 20
0.0
 30
0.0
  3
*PAPER_SPACE
  1

  0
ENDBLK
  5
19
100
AcDbEntity
 67
     1
  8
0
100
AcDbBlockEnd
  0
BLOCK
  5
91
100
AcDbEntity
  8
0
100
AcDbBlockBegin
  2
_OPEN
 70
     0
 10
0.0
 20
0.0
 30
0.0
  3
_OPEN
  1

  0
LINE
  5
92
100
AcDbEntity
  8
0
  6
BYBLOCK
 62
     0
100
AcDbLine
 10
-1.0
 20
0.166667
 30
0.0
 11
0.0
 21
0.0
 31
0.0
  0
LINE
  5
93
100
AcDbEntity
  8
0
  6
BYBLOCK
 62
     0
100
AcDbLine
 10
0.0
 20
0.0
 30
0.0
 11
-1.0
 21
-0.166667
 31
0.0
  0
LINE
  5
94
100
AcDbEntity
  8
0
  6
BYBLOCK
 62
     0
100
AcDbLine
 10
0.0
 20
0.0
 30
0.0
 11
-1.0
 21
0.0
 31
0.0
  0
ENDBLK
  5
95
100
AcDbEntity
  8
0
100
AcDbBlockEnd
  0
BLOCK
  5
6C6
100
AcDbEntity
  8
0
100
AcDbBlockBegin
  2
*D1
 70
     1
 10
0.0
 20
0.0
 30
0.0
  3
*D1
  1

  0
LINE
  5
6BD
100
AcDbEntity
  8
0
  6
BYBLOCK
 62
     0
100
AcDbLine
 10
362.865649
 20
10.282794
 30
0.0
 11
362.865649
 21
-54.955702
 31
0.0
  0
LINE
  5
6BE
100
AcDbEntity
  8
0
  6
BYBLOCK
 62
     0
100
AcDbLine
 10
782.865649
 20
18.565
 30
0.0
 11
782.865649
 21
-54.955702
 31
0.0
  0
LINE
  5
6BF
100
AcDbEntity
  8
0
  6
BYBLOCK
 62
     0
100
AcDbLine
 10
377.865649
 20
-53.705702
 30
0.0
 11
767.865649
 21
-53.705702
 31
0.0
  0
INSERT
  5
6C0
100
AcDbEntity
  8
0
  6
BYBLOCK
 62
     0
100
AcDbBlockReference
  2
_OPEN
 10
362.865649
 20
-53.705702
 30
0.0
 41
15.0
 42
15.0
 43
15.0
 50
180.0
  0
INSERT
  5
6C1
100
AcDbEntity
  8
0
  6
BYBLOCK
 62
     0
100
AcDbBlockReference
  2
_OPEN
 10
782.865649
 20
-53.705702
 30
0.0
 41
15.0
 42
15.0
 43
15.0
  0
MTEXT
  5
6C2
100
AcDbEntity
  8
0
  6
BYBLOCK
 62
     0
100
AcDbMText
 10
579.299434
 20
-41.703734
 30
0.0
 40
20.0
 41
0.0
 71
     5
 72
     1
  1
\A1;420
  7
ED20
  0
POINT
  5
6C3
100
AcDbEntity
  8
DEFPOINTS
  6
BYBLOCK
 62
     0
100
AcDbPoint
 10
362.865649
 20
11.282794
 30
0.0
  0
POINT
  5
6C4
100
AcDbEntity
  8
DEFPOINTS
  6
BYBLOCK
 62
     0
100
AcDbPoint
 10
782.865649
 20
19.565
 30
0.0
  0
POINT
  5
6C5
100
AcDbEntity
  8
DEFPOINTS
  6
BYBLOCK
 62
     0
100
AcDbPoint
 10
782.865649
 20
-53.705702
 30
0.0
  0
ENDBLK
  5
6C7
100
AcDbEntity
  8
0
100
AcDbBlockEnd
  0
BLOCK
  5
6D2
100
AcDbEntity
  8
0
100
AcDbBlockBegin
  2
*D2
 70
     1
 10
0.0
 20
0.0
 30
0.0
  3
*D2
  1

  0
LINE
  5
6C9
100
AcDbEntity
  8
0
  6
BYBLOCK
 62
     0
100
AcDbLine
 10
352.865649
 20
18.611111
 30
0.0
 11
352.865649
 21
-85.620539
 31
0.0
  0
LINE
  5
6CA
100
AcDbEntity
  8
0
  6
BYBLOCK
 62
     0
100
AcDbLine
 10
792.865649
 20
18.611111
 30
0.0
 11
792.865649
 21
-85.620539
 31
0.0
  0
LINE
  5
6CB
100
AcDbEntity
  8
0
  6
BYBLOCK
 62
     0
100
AcDbLine
 10
367.865649
 20
-84.370539
 30
0.0
 11
777.865649
 21
-84.370539
 31
0.0
  0
INSERT
  5
6CC
100
AcDbEntity
  8
0
  6
BYBLOCK
 62
     0
100
AcDbBlockReference
  2
_OPEN
 10
352.865649
 20
-84.370539
 30
0.0
 41
15.0
 42
15.0
 43
15.0
 50
180.0
  0
INSERT
  5
6CD
100
AcDbEntity
  8
0
  6
BYBLOCK
 62
     0
100
AcDbBlockReference
  2
_OPEN
 10
792.865649
 20
-84.370539
 30
0.0
 41
15.0
 42
15.0
 43
15.0
  0
MTEXT
  5
6CE
100
AcDbEntity
  8
0
  6
BYBLOCK
 62
     0
100
AcDbMText
 10
576.318581
 20
-72.370539
 30
0.0
 40
20.0
 41
0.0
 71
     5
 72
     1
  1
\A1;440
  7
ED20
  0
POINT
  5
6CF
100
AcDbEntity
  8
DEFPOINTS
  6
BYBLOCK
 62
     0
100
AcDbPoint
 10
352.865649
 20
19.611111
 30
0.0
  0
POINT
  5
6D0
100
AcDbEntity
  8
DEFPOINTS
  6
BYBLOCK
 62
     0
100
AcDbPoint
 10
792.865649
 20
19.611111
 30
0.0
  0
POINT
  5
6D1
100
AcDbEntity
  8
DEFPOINTS
  6
BYBLOCK
 62
     0
100
AcDbPoint
 10
792.865649
 20
-84.370539
 30
0.0
  0
ENDBLK
  5
6D3
100
AcDbEntity
  8
0
100
AcDbBlockEnd
  0
BLOCK
  5
6DE
100
AcDbEntity
  8
0
100
AcDbBlockBegin
  2
*D3
 70
     1
 10
0.0
 20
0.0
 30
0.0
  3
*D3
  1

  0
LINE
  5
6D5
100
AcDbEntity
  8
0
  6
BYBLOCK
 62
     0
100
AcDbLine
 10
783.865649
 20
239.565
 30
0.0
 11
865.192473
 21
239.565
 31
0.0
  0
LINE
  5
6D6
100
AcDbEntity
  8
0
  6
BYBLOCK
 62
     0
100
AcDbLine
 10
783.950252
 20
19.611111
 30
0.0
 11
865.192473
 21
19.611111
 31
0.0
  0
LINE
  5
6D7
100
AcDbEntity
  8
0
  6
BYBLOCK
 62
     0
100
AcDbLine
 10
863.942473
 20
224.565
 30
0.0
 11
863.942473
 21
34.611111
 31
0.0
  0
INSERT
  5
6D8
100
AcDbEntity
  8
0
  6
BYBLOCK
 62
     0
100
AcDbBlockReference
  2
_OPEN
 10
863.942473
 20
239.565
 30
0.0
 41
15.0
 42
15.0
 43
15.0
 50
90.0
  0
INSERT
  5
6D9
100
AcDbEntity
  8
0
  6
BYBLOCK
 62
     0
100
AcDbBlockReference
  2
_OPEN
 10
863.942473
 20
19.611111
 30
0.0
 41
15.0
 42
15.0
 43
15.0
 50
270.0
  0
MTEXT
  5
6DA
100
AcDbEntity
  8
0
  6
BYBLOCK
 62
     0
100
AcDbMText
 10
851.940505
 20
130.515975
 30
0.0
 40
20.0
 41
0.0
 71
     5
 72
     1
  1
\A1;220
  7
ED20
 11
0.0
 21
1.0
 31
0.0
  0
POINT
  5
6DB
100
AcDbEntity
  8
DEFPOINTS
  6
BYBLOCK
 62
     0
100
AcDbPoint
 10
782.865649
 20
239.565
 30
0.0
  0
POINT
  5
6DC
100
AcDbEntity
  8
DEFPOINTS
  6
BYBLOCK
 62
     0
100
AcDbPoint
 10
782.950252
 20
19.611111
 30
0.0
  0
POINT
  5
6DD
100
AcDbEntity
  8
DEFPOINTS
  6
BYBLOCK
 62
     0
100
AcDbPoint
 10
863.942473
 20
19.611111
 30
0.0
  0
ENDBLK
  5
6DF
100
AcDbEntity
  8
0
100
AcDbBlockEnd
  0
BLOCK
  5
6EA
100
AcDbEntity
  8
0
100
AcDbBlockBegin
  2
*D4
 70
     1
 10
0.0
 20
0.0
 30
0.0
  3
*D4
  1

  0
LINE
  5
6E1
100
AcDbEntity
  8
0
  6
BYBLOCK
 62
     0
100
AcDbLine
 10
783.865649
 20
249.611111
 30
0.0
 11
892.810079
 21
249.611111
 31
0.0
  0
LINE
  5
6E2
100
AcDbEntity
  8
0
  6
BYBLOCK
 62
     0
100
AcDbLine
 10
783.865649
 20
9.611111
 30
0.0
 11
892.810079
 21
9.611111
 31
0.0
  0
LINE
  5
6E3
100
AcDbEntity
  8
0
  6
BYBLOCK
 62
     0
100
AcDbLine
 10
891.560079
 20
234.611111
 30
0.0
 11
891.560079
 21
24.611111
 31
0.0
  0
INSERT
  5
6E4
100
AcDbEntity
  8
0
  6
BYBLOCK
 62
     0
100
AcDbBlockReference
  2
_OPEN
 10
891.560079
 20
249.611111
 30
0.0
 41
15.0
 42
15.0
 43
15.0
 50
90.0
  0
INSERT
  5
6E5
100
AcDbEntity
  8
0
  6
BYBLOCK
 62
     0
100
AcDbBlockReference
  2
_OPEN
 10
891.560079
 20
9.611111
 30
0.0
 41
15.0
 42
15.0
 43
15.0
 50
270.0
  0
MTEXT
  5
6E6
100
AcDbEntity
  8
0
  6
BYBLOCK
 62
     0
100
AcDbMText
 10
879.558111
 20
127.537199
 30
0.0
 40
20.0
 41
0.0
 71
     5
 72
     1
  1
\A1;240
  7
ED20
 11
0.0
 21
1.0
 31
0.0
  0
POINT
  5
6E7
100
AcDbEntity
  8
DEFPOINTS
  6
BYBLOCK
 62
     0
100
AcDbPoint
 10
782.865649
 20
249.611111
 30
0.0
  0
POINT
  5
6E8
100
AcDbEntity
  8
DEFPOINTS
  6
BYBLOCK
 62
     0
100
AcDbPoint
 10
782.865649
 20
9.611111
 30
0.0
  0
POINT
  5
6E9
100
AcDbEntity
  8
DEFPOINTS
  6
BYBLOCK
 62
     0
100
AcDbPoint
 10
891.560079
 20
9.611111
 30
0.0
  0
ENDBLK
  5
6EB
100
AcDbEntity
  8
0
100
AcDbBlockEnd
  0
BLOCK
  5
6F6
100
AcDbEntity
  8
0
100
AcDbBlockBegin
  2
*D5
 70
     1
 10
0.0
 20
0.0
 30
0.0
  3
*D5
  1

  0
LINE
  5
6ED
100
AcDbEntity
  8
0
  6
BYBLOCK
 62
     0
100
AcDbLine
 10
267.865649
 20
15.187501
 30
0.0
 11
267.865649
 21
-59.646975
 31
0.0
  0
LINE
  5
6EE
100
AcDbEntity
  8
0
  6
BYBLOCK
 62
     0
100
AcDbLine
 10
352.865649
 20
17.611111
 30
0.0
 11
352.865649
 21
-59.646975
 31
0.0
  0
LINE
  5
6EF
100
AcDbEntity
  8
0
  6
BYBLOCK
 62
     0
100
AcDbLine
 10
282.865649
 20
-58.396975
 30
0.0
 11
337.865649
 21
-58.396975
 31
0.0
  0
INSERT
  5
6F0
100
AcDbEntity
  8
0
  6
BYBLOCK
 62
     0
100
AcDbBlockReference
  2
_OPEN
 10
267.865649
 20
-58.396975
 30
0.0
 41
15.0
 42
15.0
 43
15.0
 50
180.0
  0
INSERT
  5
6F1
100
AcDbEntity
  8
0
  6
BYBLOCK
 62
     0
100
AcDbBlockReference
  2
_OPEN
 10
352.865649
 20
-58.396975
 30
0.0
 41
15.0
 42
15.0
 43
15.0
  0
MTEXT
  5
6F2
100
AcDbEntity
  8
0
  6
BYBLOCK
 62
     0
100
AcDbMText
 10
310.365649
 20
-46.396975
 30
0.0
 40
20.0
 41
0.0
 71
     5
 72
     1
  1
\A1;85
  7
ED20
  0
POINT
  5
6F3
100
AcDbEntity
  8
DEFPOINTS
  6
BYBLOCK
 62
     0
100
AcDbPoint
 10
267.865649
 20
16.187501
 30
0.0
  0
POINT
  5
6F4
100
AcDbEntity
  8
DEFPOINTS
  6
BYBLOCK
 62
     0
100
AcDbPoint
 10
352.865649
 20
18.611111
 30
0.0
  0
POINT
  5
6F5
100
AcDbEntity
  8
DEFPOINTS
  6
BYBLOCK
 62
     0
100
AcDbPoint
 10
352.865649
 20
-58.396975
 30
0.0
  0
ENDBLK
  5
6F7
100
AcDbEntity
  8
0
100
AcDbBlockEnd
  0
BLOCK
  5
702
100
AcDbEntity
  8
0
100
AcDbBlockBegin
  2
*D6
 70
     1
 10
0.0
 20
0.0
 30
0.0
  3
*D6
  1

  0
LINE
  5
6F9
100
AcDbEntity
  8
0
  6
BYBLOCK
 62
     0
100
AcDbLine
 10
936.112316
 20
8.611111
 30
0.0
 11
936.112316
 21
-42.013703
 31
0.0
  0
LINE
  5
6FA
100
AcDbEntity
  8
0
  6
BYBLOCK
 62
     0
100
AcDbLine
 10
1126.112316
 20
8.611111
 30
0.0
 11
1126.112316
 21
-42.013703
 31
0.0
  0
LINE
  5
6FB
100
AcDbEntity
  8
0
  6
BYBLOCK
 62
     0
100
AcDbLine
 10
951.112316
 20
-40.763703
 30
0.0
 11
1111.112316
 21
-40.763703
 31
0.0
  0
INSERT
  5
6FC
100
AcDbEntity
  8
0
  6
BYBLOCK
 62
     0
100
AcDbBlockReference
  2
_OPEN
 10
936.112316
 20
-40.763703
 30
0.0
 41
15.0
 42
15.0
 43
15.0
 50
180.0
  0
INSERT
  5
6FD
100
AcDbEntity
  8
0
  6
BYBLOCK
 62
     0
100
AcDbBlockReference
  2
_OPEN
 10
1126.112316
 20
-40.763703
 30
0.0
 41
15.0
 42
15.0
 43
15.0
  0
MTEXT
  5
6FE
100
AcDbEntity
  8
0
  6
BYBLOCK
 62
     0
100
AcDbMText
 10
1031.112316
 20
-28.763703
 30
0.0
 40
20.0
 41
0.0
 71
     5
 72
     1
  1
\A1;190
  7
ED20
  0
POINT
  5
6FF
100
AcDbEntity
  8
DEFPOINTS
  6
BYBLOCK
 62
     0
100
AcDbPoint
 10
936.112316
 20
9.611111
 30
0.0
  0
POINT
  5
700
100
AcDbEntity
  8
DEFPOINTS
  6
BYBLOCK
 62
     0
100
AcDbPoint
 10
1126.112316
 20
9.611111
 30
0.0
  0
POINT
  5
701
100
AcDbEntity
  8
DEFPOINTS
  6
BYBLOCK
 62
     0
100
AcDbPoint
 10
1126.112316
 20
-40.763703
 30
0.0
  0
ENDBLK
  5
703
100
AcDbEntity
  8
0
100
AcDbBlockEnd
  0
BLOCK
  5
70E
100
AcDbEntity
  8
0
100
AcDbBlockBegin
  2
*D7
 70
     1
 10
0.0
 20
0.0
 30
0.0
  3
*D7
  1

  0
LINE
  5
705
100
AcDbEntity
  8
0
  6
BYBLOCK
 62
     0
100
AcDbLine
 10
773.865649
 20
229.611111
 30
0.0
 11
833.739087
 21
229.611111
 31
0.0
  0
LINE
  5
706
100
AcDbEntity
  8
0
  6
BYBLOCK
 62
     0
100
AcDbLine
 10
773.865649
 20
29.611111
 30
0.0
 11
833.739087
 21
29.611111
 31
0.0
  0
LINE
  5
707
100
AcDbEntity
  8
0
  6
BYBLOCK
 62
     0
100
AcDbLine
 10
832.489087
 20
214.611111
 30
0.0
 11
832.489087
 21
44.611111
 31
0.0
  0
INSERT
  5
708
100
AcDbEntity
  8
0
  6
BYBLOCK
 62
     0
100
AcDbBlockReference
  2
_OPEN
 10
832.489087
 20
229.611111
 30
0.0
 41
15.0
 42
15.0
 43
15.0
 50
90.0
  0
INSERT
  5
709
100
AcDbEntity
  8
0
  6
BYBLOCK
 62
     0
100
AcDbBlockReference
  2
_OPEN
 10
832.489087
 20
29.611111
 30
0.0
 41
15.0
 42
15.0
 43
15.0
 50
270.0
  0
MTEXT
  5
70A
100
AcDbEntity
  8
0
  6
BYBLOCK
 62
     0
100
AcDbMText
 10
820.487119
 20
129.611111
 30
0.0
 40
20.0
 41
0.0
 71
     5
 72
     1
  1
\A1;200
  7
ED20
 11
0.0
 21
1.0
 31
0.0
  0
POINT
  5
70B
100
AcDbEntity
  8
DEFPOINTS
  6
BYBLOCK
 62
     0
100
AcDbPoint
 10
772.865649
 20
229.611111
 30
0.0
  0
POINT
  5
70C
100
AcDbEntity
  8
DEFPOINTS
  6
BYBLOCK
 62
     0
100
AcDbPoint
 10
772.865649
 20
29.611111
 30
0.0
  0
POINT
  5
70D
100
AcDbEntity
  8
DEFPOINTS
  6
BYBLOCK
 62
     0
100
AcDbPoint
 10
832.489087
 20
29.611111
 30
0.0
  0
ENDBLK
  5
70F
100
AcDbEntity
  8
0
100
AcDbBlockEnd
  0
BLOCK
  5
71A
100
AcDbEntity
  8
0
100
AcDbBlockBegin
  2
*D8
 70
     1
 10
0.0
 20
0.0
 30
0.0
  3
*D8
  1

  0
LINE
  5
711
100
AcDbEntity
  8
0
  6
BYBLOCK
 62
     0
100
AcDbLine
 10
372.865649
 20
28.611111
 30
0.0
 11
372.865649
 21
-25.824108
 31
0.0
  0
LINE
  5
712
100
AcDbEntity
  8
0
  6
BYBLOCK
 62
     0
100
AcDbLine
 10
772.865649
 20
28.611111
 30
0.0
 11
772.865649
 21
-25.824108
 31
0.0
  0
LINE
  5
713
100
AcDbEntity
  8
0
  6
BYBLOCK
 62
     0
100
AcDbLine
 10
387.865649
 20
-24.574108
 30
0.0
 11
757.865649
 21
-24.574108
 31
0.0
  0
INSERT
  5
714
100
AcDbEntity
  8
0
  6
BYBLOCK
 62
     0
100
AcDbBlockReference
  2
_OPEN
 10
372.865649
 20
-24.574108
 30
0.0
 41
15.0
 42
15.0
 43
15.0
 50
180.0
  0
INSERT
  5
715
100
AcDbEntity
  8
0
  6
BYBLOCK
 62
     0
100
AcDbBlockReference
  2
_OPEN
 10
772.865649
 20
-24.574108
 30
0.0
 41
15.0
 42
15.0
 43
15.0
  0
MTEXT
  5
716
100
AcDbEntity
  8
0
  6
BYBLOCK
 62
     0
100
AcDbMText
 10
572.865649
 20
-12.574108
 30
0.0
 40
20.0
 41
0.0
 71
     5
 72
     1
  1
\A1;400
  7
ED20
  0
POINT
  5
717
100
AcDbEntity
  8
DEFPOINTS
  6
BYBLOCK
 62
     0
100
AcDbPoint
 10
372.865649
 20
29.611111
 30
0.0
  0
POINT
  5
718
100
AcDbEntity
  8
DEFPOINTS
  6
BYBLOCK
 62
     0
100
AcDbPoint
 10
772.865649
 20
29.611111
 30
0.0
  0
POINT
  5
719
100
AcDbEntity
  8
DEFPOINTS
  6
BYBLOCK
 62
     0
100
AcDbPoint
 10
772.865649
 20
-24.574108
 30
0.0
  0
ENDBLK
  5
71B
100
AcDbEntity
  8
0
100
AcDbBlockEnd
  0
BLOCK
  5
726
100
AcDbEntity
  8
0
100
AcDbBlockBegin
  2
*D9
 70
     1
 10
0.0
 20
0.0
 30
0.0
  3
*D9
  1

  0
LINE
  5
71D
100
AcDbEntity
  8
0
  6
BYBLOCK
 62
     0
100
AcDbLine
 10
936.112316
 20
7.611111
 30
0.0
 11
936.112316
 21
-8.94194
 31
0.0
  0
LINE
  5
71E
100
AcDbEntity
  8
0
  6
BYBLOCK
 62
     0
100
AcDbLine
 10
1020.112316
 20
23.241044
 30
0.0
 11
1020.112316
 21
-8.94194
 31
0.0
  0
LINE
  5
71F
100
AcDbEntity
  8
0
  6
BYBLOCK
 62
     0
100
AcDbLine
 10
951.112316
 20
-7.69194
 30
0.0
 11
1005.112316
 21
-7.69194
 31
0.0
  0
INSERT
  5
720
100
AcDbEntity
  8
0
  6
BYBLOCK
 62
     0
100
AcDbBlockReference
  2
_OPEN
 10
936.112316
 20
-7.69194
 30
0.0
 41
15.0
 42
15.0
 43
15.0
 50
180.0
  0
INSERT
  5
721
100
AcDbEntity
  8
0
  6
BYBLOCK
 62
     0
100
AcDbBlockReference
  2
_OPEN
 10
1020.112316
 20
-7.69194
 30
0.0
 41
15.0
 42
15.0
 43
15.0
  0
MTEXT
  5
722
100
AcDbEntity
  8
0
  6
BYBLOCK
 62
     0
100
AcDbMText
 10
978.112316
 20
4.30806
 30
0.0
 40
20.0
 41
0.0
 71
     5
 72
     1
  1
\A1;84
  7
ED20
  0
POINT
  5
723
100
AcDbEntity
  8
DEFPOINTS
  6
BYBLOCK
 62
     0
100
AcDbPoint
 10
936.112316
 20
8.611111
 30
0.0
  0
POINT
  5
724
100
AcDbEntity
  8
DEFPOINTS
  6
BYBLOCK
 62
     0
100
AcDbPoint
 10
1020.112316
 20
24.241044
 30
0.0
  0
POINT
  5
725
100
AcDbEntity
  8
DEFPOINTS
  6
BYBLOCK
 62
     0
100
AcDbPoint
 10
1020.112316
 20
-7.69194
 30
0.0
  0
ENDBLK
  5
727
100
AcDbEntity
  8
0
100
AcDbBlockEnd
  0
BLOCK
  5
732
100
AcDbEntity
  8
0
100
AcDbBlockBegin
  2
*D10
 70
     1
 10
0.0
 20
0.0
 30
0.0
  3
*D10
  1

  0
LINE
  5
729
100
AcDbEntity
  8
0
  6
BYBLOCK
 62
     0
100
AcDbLine
 10
1020.112316
 20
23.241044
 30
0.0
 11
1020.112316
 21
-8.94194
 31
0.0
  0
LINE
  5
72A
100
AcDbEntity
  8
0
  6
BYBLOCK
 62
     0
100
AcDbLine
 10
1063.112316
 20
178.683223
 30
0.0
 11
1063.112316
 21
-8.94194
 31
0.0
  0
LINE
  5
72B
100
AcDbEntity
  8
0
  6
BYBLOCK
 62
     0
100
AcDbLine
 10
1035.112316
 20
-7.69194
 30
0.0
 11
1048.112316
 21
-7.69194
 31
0.0
  0
INSERT
  5
72C
100
AcDbEntity
  8
0
  6
BYBLOCK
 62
     0
100
AcDbBlockReference
  2
_OPEN
 10
1020.112316
 20
-7.69194
 30
0.0
 41
15.0
 42
15.0
 43
15.0
 50
180.0
  0
INSERT
  5
72D
100
AcDbEntity
  8
0
  6
BYBLOCK
 62
     0
100
AcDbBlockReference
  2
_OPEN
 10
1063.112316
 20
-7.69194
 30
0.0
 41
15.0
 42
15.0
 43
15.0
  0
MTEXT
  5
72E
100
AcDbEntity
  8
0
  6
BYBLOCK
 62
     0
100
AcDbMText
 10
1041.612316
 20
4.30806
 30
0.0
 40
20.0
 41
0.0
 71
     5
 72
     1
  1
\A1;43
  7
ED20
  0
POINT
  5
72F
100
AcDbEntity
  8
DEFPOINTS
  6
BYBLOCK
 62
     0
100
AcDbPoint
 10
1020.112316
 20
24.241044
 30
0.0
  0
POINT
  5
730
100
AcDbEntity
  8
DEFPOINTS
  6
BYBLOCK
 62
     0
100
AcDbPoint
 10
1063.112316
 20
179.683223
 30
0.0
  0
POINT
  5
731
100
AcDbEntity
  8
DEFPOINTS
  6
BYBLOCK
 62
     0
100
AcDbPoint
 10
1063.112316
 20
-7.69194
 30
0.0
  0
ENDBLK
  5
733
100
AcDbEntity
  8
0
100
AcDbBlockEnd
  0
BLOCK
  5
73E
100
AcDbEntity
  8
0
100
AcDbBlockBegin
  2
*D11
 70
     1
 10
0.0
 20
0.0
 30
0.0
  3
*D11
  1

  0
LINE
  5
735
100
AcDbEntity
  8
0
  6
BYBLOCK
 62
     0
100
AcDbLine
 10
238.509206
 20
202.111111
 30
0.0
 11
199.57652
 21
202.111111
 31
0.0
  0
LINE
  5
736
100
AcDbEntity
  8
0
  6
BYBLOCK
 62
     0
100
AcDbLine
 10
238.509206
 20
52.111111
 30
0.0
 11
199.57652
 21
52.111111
 31
0.0
  0
LINE
  5
737
100
AcDbEntity
  8
0
  6
BYBLOCK
 62
     0
100
AcDbLine
 10
200.82652
 20
187.111111
 30
0.0
 11
200.82652
 21
67.111111
 31
0.0
  0
INSERT
  5
738
100
AcDbEntity
  8
0
  6
BYBLOCK
 62
     0
100
AcDbBlockReference
  2
_OPEN
 10
200.82652
 20
202.111111
 30
0.0
 41
15.0
 42
15.0
 43
15.0
 50
90.0
  0
INSERT
  5
739
100
AcDbEntity
  8
0
  6
BYBLOCK
 62
     0
100
AcDbBlockReference
  2
_OPEN
 10
200.82652
 20
52.111111
 30
0.0
 41
15.0
 42
15.0
 43
15.0
 50
270.0
  0
MTEXT
  5
73A
100
AcDbEntity
  8
0
  6
BYBLOCK
 62
     0
100
AcDbMText
 10
188.82652
 20
127.111111
 30
0.0
 40
20.0
 41
0.0
 71
     5
 72
     1
  1
\A1;150
  7
ED20
 11
0.0
 21
1.0
 31
0.0
  0
POINT
  5
73B
100
AcDbEntity
  8
DEFPOINTS
  6
BYBLOCK
 62
     0
100
AcDbPoint
 10
239.509206
 20
202.111111
 30
0.0
  0
POINT
  5
73C
100
AcDbEntity
  8
DEFPOINTS
  6
BYBLOCK
 62
     0
100
AcDbPoint
 10
239.509206
 20
52.111111
 30
0.0
  0
POINT
  5
73D
100
AcDbEntity
  8
DEFPOINTS
  6
BYBLOCK
 62
     0
100
AcDbPoint
 10
200.82652
 20
52.111111
 30
0.0
  0
ENDBLK
  5
73F
100
AcDbEntity
  8
0
100
AcDbBlockEnd
  0
BLOCK
  5
74C
100
AcDbEntity
  8
0
100
AcDbBlockBegin
  2
*D12
 70
     1
 10
0.0
 20
0.0
 30
0.0
  3
*D12
  1

  0
LINE
  5
741
100
AcDbEntity
  8
0
  6
BYBLOCK
 62
     0
100
AcDbLine
 10
239.509206
 20
40.111111
 30
0.0
 11
239.509206
 21
-59.646975
 31
0.0
  0
LINE
  5
742
100
AcDbEntity
  8
0
  6
BYBLOCK
 62
     0
100
AcDbLine
 10
267.865649
 20
14.187501
 30
0.0
 11
267.865649
 21
-59.646975
 31
0.0
  0
LINE
  5
743
100
AcDbEntity
  8
0
  6
BYBLOCK
 62
     0
100
AcDbLine
 10
224.509206
 20
-58.396975
 30
0.0
 11
209.509206
 21
-58.396975
 31
0.0
  0
LINE
  5
744
100
AcDbEntity
  8
0
  6
BYBLOCK
 62
     0
100
AcDbLine
 10
282.865649
 20
-58.396975
 30
0.0
 11
297.865649
 21
-58.396975
 31
0.0
  0
LINE
  5
745
100
AcDbEntity
  8
0
  6
BYBLOCK
 62
     0
100
AcDbLine
 10
239.509206
 20
-58.396975
 30
0.0
 11
267.865649
 21
-58.396975
 31
0.0
  0
INSERT
  5
746
100
AcDbEntity
  8
0
  6
BYBLOCK
 62
     0
100
AcDbBlockReference
  2
_OPEN
 10
239.509206
 20
-58.396975
 30
0.0
 41
15.0
 42
15.0
 43
15.0
  0
INSERT
  5
747
100
AcDbEntity
  8
0
  6
BYBLOCK
 62
     0
100
AcDbBlockReference
  2
_OPEN
 10
267.865649
 20
-58.396975
 30
0.0
 41
15.0
 42
15.0
 43
15.0
 50
180.0
  0
MTEXT
  5
748
100
AcDbEntity
  8
0
  6
BYBLOCK
 62
     0
100
AcDbMText
 10
253.687427
 20
-46.395007
 30
0.0
 40
20.0
 41
0.0
 71
     5
 72
     1
  1
\A1;28
  7
ED20
  0
POINT
  5
749
100
AcDbEntity
  8
DEFPOINTS
  6
BYBLOCK
 62
     0
100
AcDbPoint
 10
239.509206
 20
41.111111
 30
0.0
  0
POINT
  5
74A
100
AcDbEntity
  8
DEFPOINTS
  6
BYBLOCK
 62
     0
100
AcDbPoint
 10
267.865649
 20
15.187501
 30
0.0
  0
POINT
  5
74B
100
AcDbEntity
  8
DEFPOINTS
  6
BYBLOCK
 62
     0
100
AcDbPoint
 10
267.865649
 20
-58.396975
 30
0.0
  0
ENDBLK
  5
74D
100
AcDbEntity
  8
0
100
AcDbBlockEnd
  0
BLOCK
  5
7EB
100
AcDbEntity
  8
0
 62
    41
100
AcDbBlockBegin
  2
IBW-200
 70
     0
 10
0.0
 20
0.0
 30
0.0
  3
IBW-200
  1

  0
LINE
  5
74F
100
AcDbEntity
  8
V0-OBRYS
100
AcDbLine
 10
362.865649
 20
9.611111
 30
0.0
 11
782.865649
 21
9.611111
 31
0.0
  0
LINE
  5
750
100
AcDbEntity
  8
V0-OBRYS
100
AcDbLine
 10
792.865649
 20
19.611111
 30
0.0
 11
792.865649
 21
239.611111
 31
0.0
  0
LINE
  5
751
100
AcDbEntity
  8
V0-OBRYS
100
AcDbLine
 10
782.865649
 20
249.611111
 30
0.0
 11
362.865649
 21
249.611111
 31
0.0
  0
LINE
  5
752
100
AcDbEntity
  8
V0-OBRYS
100
AcDbLine
 10
352.865649
 20
239.611111
 30
0.0
 11
352.865649
 21
19.611111
 31
0.0
  0
LINE
  5
753
100
AcDbEntity
  8
V0-OBRYS
100
AcDbLine
 10
372.865649
 20
229.611111
 30
0.0
 11
372.865649
 21
29.611111
 31
0.0
  0
LINE
  5
754
100
AcDbEntity
  8
V0-OBRYS
100
AcDbLine
 10
772.865649
 20
229.611111
 30
0.0
 11
372.865649
 21
229.611111
 31
0.0
  0
LINE
  5
755
100
AcDbEntity
  8
V0-OBRYS
100
AcDbLine
 10
772.865649
 20
29.611111
 30
0.0
 11
772.865649
 21
229.611111
 31
0.0
  0
LINE
  5
756
100
AcDbEntity
  8
V0-OBRYS
100
AcDbLine
 10
267.865649
 20
29.611111
 30
0.0
 11
352.865649
 21
29.611111
 31
0.0
  0
ARC
  5
757
100
AcDbEntity
  8
V0-OBRYS
100
AcDbCircle
 10
362.865649
 20
19.611111
 30
0.0
 40
10.0
100
AcDbArc
 50
180.0
 51
270.0
  0
ARC
  5
758
100
AcDbEntity
  8
V0-OBRYS
100
AcDbCircle
 10
362.865649
 20
239.611111
 30
0.0
 40
10.0
100
AcDbArc
 50
90.0
 51
180.0
  0
ARC
  5
759
100
AcDbEntity
  8
V0-OBRYS
100
AcDbCircle
 10
782.865649
 20
239.611111
 30
0.0
 40
10.0
100
AcDbArc
 50
0.0
 51
90.0
  0
ARC
  5
75A
100
AcDbEntity
  8
V0-OBRYS
100
AcDbCircle
 10
782.865649
 20
19.611111
 30
0.0
 40
10.0
100
AcDbArc
 50
270.0
 51
0.0
  0
CIRCLE
  5
75B
100
AcDbEntity
  8
V0-OBRYS
100
AcDbCircle
 10
362.865649
 20
19.611111
 30
0.0
 40
4.5
  0
CIRCLE
  5
75C
100
AcDbEntity
  8
V0-OBRYS
100
AcDbCircle
 10
362.865649
 20
239.611111
 30
0.0
 40
4.5
  0
CIRCLE
  5
75D
100
AcDbEntity
  8
V0-OBRYS
100
AcDbCircle
 10
782.865649
 20
239.611111
 30
0.0
 40
4.5
  0
CIRCLE
  5
75E
100
AcDbEntity
  8
V0-OBRYS
100
AcDbCircle
 10
782.865649
 20
19.611111
 30
0.0
 40
4.5
  0
LINE
  5
75F
100
AcDbEntity
  8
V0-VYPLNE
  6
DASHDOT
 62
    63
100
AcDbLine
 10
354.389635
 20
239.611111
 30
0.0
 11
371.510869
 21
239.611111
 31
0.0
  0
LINE
  5
760
100
AcDbEntity
  8
V0-VYPLNE
  6
DASHDOT
 62
    63
100
AcDbLine
 10
362.865649
 20
231.282794
 30
0.0
 11
362.865649
 21
247.847206
 31
0.0
  0
LINE
  5
761
100
AcDbEntity
  8
V0-VYPLNE
  6
DASHDOT
 62
    63
100
AcDbLine
 10
354.389635
 20
19.611111
 30
0.0
 11
371.510869
 21
19.611111
 31
0.0
  0
LINE
  5
762
100
AcDbEntity
  8
V0-VYPLNE
  6
DASHDOT
 62
    63
100
AcDbLine
 10
362.865649
 20
11.282794
 30
0.0
 11
362.865649
 21
27.847206
 31
0.0
  0
LINE
  5
763
100
AcDbEntity
  8
V0-VYPLNE
  6
DASHDOT
 62
    63
100
AcDbLine
 10
774.389635
 20
239.611111
 30
0.0
 11
791.510869
 21
239.611111
 31
0.0
  0
LINE
  5
764
100
AcDbEntity
  8
V0-VYPLNE
  6
DASHDOT
 62
    63
100
AcDbLine
 10
782.865649
 20
231.282794
 30
0.0
 11
782.865649
 21
247.847206
 31
0.0
  0
CIRCLE
  5
765
100
AcDbEntity
  8
V0-OBRYS
100
AcDbCircle
 10
782.865649
 20
19.611111
 30
0.0
 40
4.5
  0
LINE
  5
766
100
AcDbEntity
  8
V0-VYPLNE
  6
DASHDOT
 62
    63
100
AcDbLine
 10
782.865649
 20
11.282794
 30
0.0
 11
782.865649
 21
27.847206
 31
0.0
  0
LINE
  5
767
100
AcDbEntity
  8
V0-VYPLNE
  6
DASHDOT
 62
    63
100
AcDbLine
 10
774.389635
 20
19.611111
 30
0.0
 11
791.510869
 21
19.611111
 31
0.0
  0
LINE
  5
768
100
AcDbEntity
  8
V0-OBRYS
100
AcDbLine
 10
936.112316
 20
9.611111
 30
0.0
 11
936.112316
 21
249.611111
 31
0.0
  0
LINE
  5
769
100
AcDbEntity
  8
V0-OBRYS
100
AcDbLine
 10
1126.112316
 20
9.611111
 30
0.0
 11
1126.112316
 21
249.611111
 31
0.0
  0
LINE
  5
76A
100
AcDbEntity
  8
V0-OBRYS
100
AcDbLine
 10
941.112316
 20
9.611111
 30
0.0
 11
941.112316
 21
249.611111
 31
0.0
  0
LINE
  5
76B
100
AcDbEntity
  8
V0-OBRYS
100
AcDbLine
 10
1121.112316
 20
9.611111
 30
0.0
 11
1121.112316
 21
249.611111
 31
0.0
  0
LINE
  5
76C
100
AcDbEntity
  8
V0-OBRYS
100
AcDbLine
 10
941.112316
 20
9.611111
 30
0.0
 11
936.112316
 21
9.611111
 31
0.0
  0
LINE
  5
76D
100
AcDbEntity
  8
V0-OBRYS
100
AcDbLine
 10
1121.112316
 20
9.611111
 30
0.0
 11
1126.112316
 21
9.611111
 31
0.0
  0
LINE
  5
76E
100
AcDbEntity
  8
V0-OBRYS
100
AcDbLine
 10
971.112316
 20
29.611111
 30
0.0
 11
971.112316
 21
229.611111
 31
0.0
  0
LINE
  5
76F
100
AcDbEntity
  8
V0-OBRYS
100
AcDbLine
 10
1091.112316
 20
29.611111
 30
0.0
 11
1091.112316
 21
229.611111
 31
0.0
  0
LINE
  5
770
100
AcDbEntity
  8
V0-OBRYS
100
AcDbLine
 10
941.112316
 20
229.611111
 30
0.0
 11
1121.112316
 21
229.611111
 31
0.0
  0
LINE
  5
771
100
AcDbEntity
  8
V0-OBRYS
100
AcDbLine
 10
941.112316
 20
249.611111
 30
0.0
 11
936.112316
 21
249.611111
 31
0.0
  0
LINE
  5
772
100
AcDbEntity
  8
V0-OBRYS
100
AcDbLine
 10
1121.112316
 20
249.611111
 30
0.0
 11
1126.112316
 21
249.611111
 31
0.0
  0
LINE
  5
773
100
AcDbEntity
  8
V0-OBRYS
100
AcDbLine
 10
941.112316
 20
29.611111
 30
0.0
 11
1121.112316
 21
29.611111
 31
0.0
  0
LINE
  5
774
100
AcDbEntity
  8
V0-VYPLNE
  6
DASHDOT
 62
    63
100
AcDbLine
 10
931.112316
 20
19.611111
 30
0.0
 11
946.964491
 21
19.611111
 31
0.0
  0
LINE
  5
775
100
AcDbEntity
  8
V0-VYPLNE
  6
DASHDOT
 62
    63
100
AcDbLine
 10
1115.011478
 20
19.611111
 30
0.0
 11
1131.112316
 21
19.611111
 31
0.0
  0
LINE
  5
776
100
AcDbEntity
  8
V0-VYPLNE
  6
DASHDOT
 62
    63
100
AcDbLine
 10
931.112316
 20
239.611111
 30
0.0
 11
946.964491
 21
239.611111
 31
0.0
  0
LINE
  5
777
100
AcDbEntity
  8
V0-VYPLNE
  6
DASHDOT
 62
    63
100
AcDbLine
 10
1115.011478
 20
239.611111
 30
0.0
 11
1131.112316
 21
239.611111
 31
0.0
  0
LINE
  5
778
100
AcDbEntity
  8
V0-OBRYS
100
AcDbLine
 10
936.112316
 20
-65.043324
 30
0.0
 11
936.112316
 21
-505.043324
 31
0.0
  0
LINE
  5
779
100
AcDbEntity
  8
V0-OBRYS
100
AcDbLine
 10
1126.112316
 20
-65.043324
 30
0.0
 11
1126.112316
 21
-505.043324
 31
0.0
  0
LINE
  5
77A
100
AcDbEntity
  8
V0-OBRYS
100
AcDbLine
 10
941.112316
 20
-65.043324
 30
0.0
 11
941.112316
 21
-505.043324
 31
0.0
  0
LINE
  5
77B
100
AcDbEntity
  8
V0-OBRYS
100
AcDbLine
 10
1121.112316
 20
-65.043324
 30
0.0
 11
1121.112316
 21
-505.043324
 31
0.0
  0
LINE
  5
77C
100
AcDbEntity
  8
V0-OBRYS
100
AcDbLine
 10
971.112316
 20
-85.043324
 30
0.0
 11
971.112316
 21
-590.043324
 31
0.0
  0
LINE
  5
77D
100
AcDbEntity
  8
V0-OBRYS
100
AcDbLine
 10
1091.112316
 20
-85.043324
 30
0.0
 11
1091.112316
 21
-590.043324
 31
0.0
  0
LINE
  5
77E
100
AcDbEntity
  8
V0-OBRYS
100
AcDbLine
 10
941.112316
 20
-85.043324
 30
0.0
 11
1121.112316
 21
-85.043324
 31
0.0
  0
LINE
  5
77F
100
AcDbEntity
  8
V0-OBRYS
100
AcDbLine
 10
941.112316
 20
-65.043324
 30
0.0
 11
936.112316
 21
-65.043324
 31
0.0
  0
LINE
  5
780
100
AcDbEntity
  8
V0-VYPLNE
  6
DASHDOT
 62
    63
100
AcDbLine
 10
931.112316
 20
-75.043324
 30
0.0
 11
946.964491
 21
-75.043324
 31
0.0
  0
LINE
  5
781
100
AcDbEntity
  8
V0-VYPLNE
  6
DASHDOT
 62
    63
100
AcDbLine
 10
1115.011478
 20
-75.043324
 30
0.0
 11
1131.112316
 21
-75.043324
 31
0.0
  0
LINE
  5
782
100
AcDbEntity
  8
V0-OBRYS
100
AcDbLine
 10
1121.112316
 20
-65.043324
 30
0.0
 11
1126.112316
 21
-65.043324
 31
0.0
  0
LINE
  5
783
100
AcDbEntity
  8
V0-OBRYS
100
AcDbLine
 10
941.112316
 20
-485.043324
 30
0.0
 11
1121.112316
 21
-485.043324
 31
0.0
  0
LINE
  5
784
100
AcDbEntity
  8
V0-OBRYS
100
AcDbLine
 10
941.112316
 20
-505.043324
 30
0.0
 11
936.112316
 21
-505.043324
 31
0.0
  0
LINE
  5
785
100
AcDbEntity
  8
V0-VYPLNE
  6
DASHDOT
 62
    63
100
AcDbLine
 10
931.112316
 20
-495.043324
 30
0.0
 11
946.964491
 21
-495.043324
 31
0.0
  0
LINE
  5
786
100
AcDbEntity
  8
V0-VYPLNE
  6
DASHDOT
 62
    63
100
AcDbLine
 10
1115.011478
 20
-495.043324
 30
0.0
 11
1131.112316
 21
-495.043324
 31
0.0
  0
LINE
  5
787
100
AcDbEntity
  8
V0-OBRYS
100
AcDbLine
 10
1121.112316
 20
-505.043324
 30
0.0
 11
1126.112316
 21
-505.043324
 31
0.0
  0
DIMENSION
  5
788
100
AcDbEntity
  8
V0-VYPLNE
  6
CONTINUOUS
 62
    41
100
AcDbDimension
  2
*D1
 10
782.865649
 20
-53.705702
 30
0.0
 11
579.299434
 21
-53.705702
 31
0.0
 70
   160
  3
ED40
100
AcDbAlignedDimension
 13
362.865649
 23
11.282794
 33
0.0
 14
782.865649
 24
19.565
 34
0.0
100
AcDbRotatedDimension
  0
DIMENSION
  5
789
100
AcDbEntity
  8
V0-VYPLNE
  6
CONTINUOUS
 62
    41
100
AcDbDimension
  2
*D2
 10
792.865649
 20
-84.370539
 30
0.0
 11
576.318581
 21
-84.370539
 31
0.0
 70
   160
  3
ED40
100
AcDbAlignedDimension
 13
352.865649
 23
19.611111
 33
0.0
 14
792.865649
 24
19.611111
 34
0.0
100
AcDbRotatedDimension
  0
DIMENSION
  5
78A
100
AcDbEntity
  8
V0-VYPLNE
  6
CONTINUOUS
 62
    41
100
AcDbDimension
  2
*D3
 10
863.942473
 20
19.611111
 30
0.0
 11
863.942473
 21
130.515975
 31
0.0
 70
   160
  3
ED40
100
AcDbAlignedDimension
 13
782.865649
 23
239.565
 33
0.0
 14
782.950252
 24
19.611111
 34
0.0
 50
90.0
100
AcDbRotatedDimension
  0
DIMENSION
  5
78B
100
AcDbEntity
  8
V0-VYPLNE
  6
CONTINUOUS
 62
    41
100
AcDbDimension
  2
*D4
 10
891.560079
 20
9.611111
 30
0.0
 11
891.560079
 21
127.537199
 31
0.0
 70
   160
  3
ED40
100
AcDbAlignedDimension
 13
782.865649
 23
249.611111
 33
0.0
 14
782.865649
 24
9.611111
 34
0.0
 50
90.0
100
AcDbRotatedDimension
  0
MTEXT
  5
78C
100
AcDbEntity
  8
V0-ZBYTEK
 62
   130
100
AcDbMText
 10
600.089717
 20
-297.880762
 30
0.0
 40
31.5
 41
892.3329
 71
     5
 72
     5
  1
VODNI OHRIVAC
  7
ED10
  0
MTEXT
  5
78D
100
AcDbEntity
  8
V0-ZBYTEK
100
AcDbMText
 10
596.503413
 20
-366.065618
 30
0.0
 40
22.5
 41
353.46495
 71
     5
 72
     5
  1
PRO CTYRHRANNE POTRUBI
  7
ED10
  0
MTEXT
  5
78E
100
AcDbEntity
  8
V0-NAZVY
100
AcDbMText
 10
585.653358
 20
-215.428352
 30
0.0
 40
56.25
 41
462.6912
 71
     5
 72
     5
  1
IBW-200
  7
ED10
  0
LINE
  5
78F
100
AcDbEntity
  8
V0-OBRYS
  6
CONTINUOUS
 62
    90
100
AcDbLine
 10
267.865649
 20
16.187501
 30
0.0
 11
267.865649
 21
243.034722
 31
0.0
  0
LINE
  5
790
100
AcDbEntity
  8
V0-OBRYS
  6
CONTINUOUS
 62
    90
100
AcDbLine
 10
270.865649
 20
16.187501
 30
0.0
 11
270.865649
 21
243.034722
 31
0.0
  0
LINE
  5
791
100
AcDbEntity
  8
V0-OBRYS
100
AcDbLine
 10
352.865649
 20
229.611111
 30
0.0
 11
267.865649
 21
229.611111
 31
0.0
  0
LINE
  5
792
100
AcDbEntity
  8
V0-OBRYS
100
AcDbLine
 10
372.865649
 20
29.611111
 30
0.0
 11
772.865649
 21
29.611111
 31
0.0
  0
LINE
  5
793
100
AcDbEntity
  8
V0-OBRYS
100
AcDbLine
 10
956.383218
 20
-590.043324
 30
0.0
 11
1105.841414
 21
-590.043324
 31
0.0
  0
LINE
  5
794
100
AcDbEntity
  8
V0-OBRYS
100
AcDbLine
 10
956.383218
 20
-587.043324
 30
0.0
 11
1105.841414
 21
-587.043324
 31
0.0
  0
LINE
  5
795
100
AcDbEntity
  8
V0-OBRYS
  6
CONTINUOUS
 62
    90
100
AcDbLine
 10
956.383218
 20
-590.043324
 30
0.0
 11
956.383218
 21
-587.043324
 31
0.0
  0
LINE
  5
796
100
AcDbEntity
  8
V0-OBRYS
  6
CONTINUOUS
 62
    90
100
AcDbLine
 10
1105.841414
 20
-590.043324
 30
0.0
 11
1105.841414
 21
-587.043324
 31
0.0
  0
LINE
  5
797
100
AcDbEntity
  8
V0-OBRYS
  6
CONTINUOUS
 62
    90
100
AcDbLine
 10
267.865649
 20
243.034722
 30
0.0
 11
270.865649
 21
243.034722
 31
0.0
  0
LINE
  5
798
100
AcDbEntity
  8
V0-OBRYS
  6
CONTINUOUS
 62
    90
100
AcDbLine
 10
267.865649
 20
16.187501
 30
0.0
 11
270.865649
 21
16.187501
 31
0.0
  0
DIMENSION
  5
799
100
AcDbEntity
  8
V0-VYPLNE
  6
CONTINUOUS
 62
    41
100
AcDbDimension
  2
*D5
 10
352.865649
 20
-58.396975
 30
0.0
 11
310.365649
 21
-46.396975
 31
0.0
 70
    32
  3
ED40
100
AcDbAlignedDimension
 13
267.865649
 23
16.187501
 33
0.0
 14
352.865649
 24
18.611111
 34
0.0
100
AcDbRotatedDimension
  0
DIMENSION
  5
79A
100
AcDbEntity
  8
V0-VYPLNE
  6
CONTINUOUS
 62
    41
100
AcDbDimension
  2
*D6
 10
1126.112316
 20
-40.763703
 30
0.0
 11
1031.112316
 21
-28.763703
 31
0.0
 70
    32
  3
ED40
100
AcDbAlignedDimension
 13
936.112316
 23
9.611111
 33
0.0
 14
1126.112316
 24
9.611111
 34
0.0
100
AcDbRotatedDimension
  0
LINE
  5
79B
100
AcDbEntity
  8
V0-VYPLNE
  6
CONTINUOUS
 62
    41
100
AcDbLine
 10
980.909015
 20
97.995719
 30
0.0
 11
1076.877651
 21
97.995719
 31
0.0
  0
LINE
  5
79C
100
AcDbEntity
  8
V0-VYPLNE
  6
CONTINUOUS
 62
    41
100
AcDbLine
 10
1076.877651
 20
97.995719
 30
0.0
 11
1031.956163
 21
108.198031
 31
0.0
  0
LINE
  5
79D
100
AcDbEntity
  8
V0-VYPLNE
  6
CONTINUOUS
 62
    41
100
AcDbLine
 10
1076.877651
 20
97.995719
 30
0.0
 11
1031.956163
 21
87.793408
 31
0.0
  0
LINE
  5
79E
100
AcDbEntity
  8
V0-VYPLNE
  6
CONTINUOUS
 62
    41
100
AcDbLine
 10
1078.559506
 20
-297.929349
 30
0.0
 11
1033.638018
 21
-287.727037
 31
0.0
  0
LINE
  5
79F
100
AcDbEntity
  8
V0-VYPLNE
  6
CONTINUOUS
 62
    41
100
AcDbLine
 10
1078.559506
 20
-297.929349
 30
0.0
 11
1033.638018
 21
-308.13166
 31
0.0
  0
LINE
  5
7A0
100
AcDbEntity
  8
V0-VYPLNE
  6
CONTINUOUS
 62
    41
100
AcDbLine
 10
982.59087
 20
-297.929349
 30
0.0
 11
1078.559506
 21
-297.929349
 31
0.0
  0
DIMENSION
  5
7A1
100
AcDbEntity
  8
V0-VYPLNE
  6
CONTINUOUS
 62
    41
100
AcDbDimension
  2
*D7
 10
832.489087
 20
29.611111
 30
0.0
 11
820.487119
 21
129.611111
 31
0.0
 70
    32
  3
ED40
100
AcDbAlignedDimension
 13
772.865649
 23
229.611111
 33
0.0
 14
772.865649
 24
29.611111
 34
0.0
 50
90.0
100
AcDbRotatedDimension
  0
DIMENSION
  5
7A2
100
AcDbEntity
  8
V0-VYPLNE
  6
CONTINUOUS
 62
    41
100
AcDbDimension
  2
*D8
 10
772.865649
 20
-24.574108
 30
0.0
 11
572.865649
 21
-12.574108
 31
0.0
 70
    32
  3
ED40
100
AcDbAlignedDimension
 13
372.865649
 23
29.611111
 33
0.0
 14
772.865649
 24
29.611111
 34
0.0
100
AcDbRotatedDimension
  0
LEADER
  5
7A3
100
AcDbEntity
  8
V0-VYPLNE
  6
CONTINUOUS
 62
    41
100
AcDbLeader
  3
ED40
 73
     0
 74
     0
 75
     1
 40
20.0
 41
27.43187
 76
     3
 10
785.692584
 20
16.0568
 30
0.0
 10
823.626333
 20
-49.906526
 30
0.0
 10
838.626333
 20
-49.906526
 30
0.0
 77
    41
340
7A4
  0
MTEXT
  5
7A4
102
{ACAD_REACTORS
330
7A3
102
}
100
AcDbEntity
  8
V0-VYPLNE
  6
CONTINUOUS
 62
    41
100
AcDbMText
 10
840.626333
 20
-37.906526
 30
0.0
 40
20.0
 41
0.0
 71
     4
 72
     1
  1
\A1;%%c9
  7
ED20
  0
LINE
  5
7A5
100
AcDbEntity
  8
V0-VYPLNE
  6
CONTINUOUS
 62
    52
100
AcDbLine
 10
372.865649
 20
132.111111
 30
0.0
 11
772.650936
 21
132.111111
 31
0.0
  0
LINE
  5
7A6
100
AcDbEntity
  8
V0-VYPLNE
  6
CONTINUOUS
 62
    52
100
AcDbLine
 10
372.865649
 20
127.111111
 30
0.0
 11
772.650936
 21
127.111111
 31
0.0
  0
LINE
  5
7A7
100
AcDbEntity
  8
V0-VYPLNE
  6
CONTINUOUS
 62
    41
100
AcDbLine
 10
572.865649
 20
229.611111
 30
0.0
 11
572.865649
 21
29.611111
 31
0.0
  0
LINE
  5
7A8
100
AcDbEntity
  8
V0-VYPLNE
  6
CONTINUOUS
 62
    52
100
AcDbLine
 10
372.865649
 20
152.111111
 30
0.0
 11
772.650936
 21
152.111111
 31
0.0
  0
LINE
  5
7A9
100
AcDbEntity
  8
V0-VYPLNE
  6
CONTINUOUS
 62
    52
100
AcDbLine
 10
372.865649
 20
147.111111
 30
0.0
 11
772.650936
 21
147.111111
 31
0.0
  0
LINE
  5
7AA
100
AcDbEntity
  8
V0-VYPLNE
  6
CONTINUOUS
 62
    52
100
AcDbLine
 10
372.973005
 20
169.611111
 30
0.0
 11
772.758293
 21
169.611111
 31
0.0
  0
LINE
  5
7AB
100
AcDbEntity
  8
V0-VYPLNE
  6
CONTINUOUS
 62
    52
100
AcDbLine
 10
372.973005
 20
164.611111
 30
0.0
 11
772.758293
 21
164.611111
 31
0.0
  0
LINE
  5
7AC
100
AcDbEntity
  8
V0-VYPLNE
  6
CONTINUOUS
 62
    52
100
AcDbLine
 10
372.973005
 20
169.611111
 30
0.0
 11
772.758293
 21
169.611111
 31
0.0
  0
LINE
  5
7AD
100
AcDbEntity
  8
V0-VYPLNE
  6
CONTINUOUS
 62
    52
100
AcDbLine
 10
372.973005
 20
164.611111
 30
0.0
 11
772.758293
 21
164.611111
 31
0.0
  0
LINE
  5
7AE
100
AcDbEntity
  8
V0-VYPLNE
  6
CONTINUOUS
 62
    52
100
AcDbLine
 10
372.973005
 20
189.611111
 30
0.0
 11
772.758293
 21
189.611111
 31
0.0
  0
LINE
  5
7AF
100
AcDbEntity
  8
V0-VYPLNE
  6
CONTINUOUS
 62
    52
100
AcDbLine
 10
372.973005
 20
184.611111
 30
0.0
 11
772.758293
 21
184.611111
 31
0.0
  0
LINE
  5
7B0
100
AcDbEntity
  8
V0-VYPLNE
  6
CONTINUOUS
 62
    52
100
AcDbLine
 10
372.973005
 20
89.611111
 30
0.0
 11
772.758293
 21
89.611111
 31
0.0
  0
LINE
  5
7B1
100
AcDbEntity
  8
V0-VYPLNE
  6
CONTINUOUS
 62
    52
100
AcDbLine
 10
372.973005
 20
84.611111
 30
0.0
 11
772.758293
 21
84.611111
 31
0.0
  0
LINE
  5
7B2
100
AcDbEntity
  8
V0-VYPLNE
  6
CONTINUOUS
 62
    52
100
AcDbLine
 10
372.973005
 20
49.611111
 30
0.0
 11
772.758293
 21
49.611111
 31
0.0
  0
LINE
  5
7B3
100
AcDbEntity
  8
V0-VYPLNE
  6
CONTINUOUS
 62
    52
100
AcDbLine
 10
372.973005
 20
44.611111
 30
0.0
 11
772.758293
 21
44.611111
 31
0.0
  0
LINE
  5
7B4
100
AcDbEntity
  8
V0-VYPLNE
  6
CONTINUOUS
 62
    52
100
AcDbLine
 10
372.973005
 20
69.611111
 30
0.0
 11
772.758293
 21
69.611111
 31
0.0
  0
LINE
  5
7B5
100
AcDbEntity
  8
V0-VYPLNE
  6
CONTINUOUS
 62
    52
100
AcDbLine
 10
372.973005
 20
64.611111
 30
0.0
 11
772.758293
 21
64.611111
 31
0.0
  0
LINE
  5
7B6
100
AcDbEntity
  8
V0-VYPLNE
  6
CONTINUOUS
 62
    52
100
AcDbLine
 10
372.973005
 20
109.611111
 30
0.0
 11
772.758293
 21
109.611111
 31
0.0
  0
LINE
  5
7B7
100
AcDbEntity
  8
V0-VYPLNE
  6
CONTINUOUS
 62
    52
100
AcDbLine
 10
372.973005
 20
104.611111
 30
0.0
 11
772.758293
 21
104.611111
 31
0.0
  0
LINE
  5
7B8
100
AcDbEntity
  8
V0-VYPLNE
  6
CONTINUOUS
 62
    52
100
AcDbLine
 10
372.973005
 20
204.611111
 30
0.0
 11
772.758293
 21
204.611111
 31
0.0
  0
LINE
  5
7B9
100
AcDbEntity
  8
V0-VYPLNE
  6
CONTINUOUS
 62
    52
100
AcDbLine
 10
372.973005
 20
209.611111
 30
0.0
 11
772.758293
 21
209.611111
 31
0.0
  0
LINE
  5
7BA
100
AcDbEntity
  8
V0-VYPLNE
  6
CONTINUOUS
 62
    41
100
AcDbLine
 10
392.96227
 20
223.811062
 30
0.0
 11
392.96227
 21
34.455701
 31
0.0
  0
LINE
  5
7BB
100
AcDbEntity
  8
V0-VYPLNE
  6
CONTINUOUS
 62
    41
100
AcDbLine
 10
412.951534
 20
223.811062
 30
0.0
 11
412.951534
 21
34.455701
 31
0.0
  0
LINE
  5
7BC
100
AcDbEntity
  8
V0-VYPLNE
  6
CONTINUOUS
 62
    41
100
AcDbLine
 10
432.940798
 20
223.811062
 30
0.0
 11
432.940798
 21
34.455701
 31
0.0
  0
LINE
  5
7BD
100
AcDbEntity
  8
V0-VYPLNE
  6
CONTINUOUS
 62
    41
100
AcDbLine
 10
452.930063
 20
223.811062
 30
0.0
 11
452.930063
 21
34.455701
 31
0.0
  0
LINE
  5
7BE
100
AcDbEntity
  8
V0-VYPLNE
  6
CONTINUOUS
 62
    41
100
AcDbLine
 10
472.919327
 20
223.811062
 30
0.0
 11
472.919327
 21
34.455701
 31
0.0
  0
LINE
  5
7BF
100
AcDbEntity
  8
V0-VYPLNE
  6
CONTINUOUS
 62
    41
100
AcDbLine
 10
492.908591
 20
223.811062
 30
0.0
 11
492.908591
 21
34.455701
 31
0.0
  0
LINE
  5
7C0
100
AcDbEntity
  8
V0-VYPLNE
  6
CONTINUOUS
 62
    41
100
AcDbLine
 10
512.897856
 20
223.811062
 30
0.0
 11
512.897856
 21
34.455701
 31
0.0
  0
LINE
  5
7C1
100
AcDbEntity
  8
V0-VYPLNE
  6
CONTINUOUS
 62
    41
100
AcDbLine
 10
532.88712
 20
223.811062
 30
0.0
 11
532.88712
 21
34.455701
 31
0.0
  0
LINE
  5
7C2
100
AcDbEntity
  8
V0-VYPLNE
  6
CONTINUOUS
 62
    41
100
AcDbLine
 10
552.876384
 20
223.811062
 30
0.0
 11
552.876384
 21
34.455701
 31
0.0
  0
LINE
  5
7C3
100
AcDbEntity
  8
V0-VYPLNE
  6
CONTINUOUS
 62
    41
100
AcDbLine
 10
592.854913
 20
223.811062
 30
0.0
 11
592.854913
 21
34.455701
 31
0.0
  0
LINE
  5
7C4
100
AcDbEntity
  8
V0-VYPLNE
  6
CONTINUOUS
 62
    41
100
AcDbLine
 10
612.844178
 20
223.811062
 30
0.0
 11
612.844178
 21
34.455701
 31
0.0
  0
LINE
  5
7C5
100
AcDbEntity
  8
V0-VYPLNE
  6
CONTINUOUS
 62
    41
100
AcDbLine
 10
632.833442
 20
223.811062
 30
0.0
 11
632.833442
 21
34.455701
 31
0.0
  0
LINE
  5
7C6
100
AcDbEntity
  8
V0-VYPLNE
  6
CONTINUOUS
 62
    41
100
AcDbLine
 10
652.822706
 20
223.811062
 30
0.0
 11
652.822706
 21
34.455701
 31
0.0
  0
LINE
  5
7C7
100
AcDbEntity
  8
V0-VYPLNE
  6
CONTINUOUS
 62
    41
100
AcDbLine
 10
672.811971
 20
223.811062
 30
0.0
 11
672.811971
 21
34.455701
 31
0.0
  0
LINE
  5
7C8
100
AcDbEntity
  8
V0-VYPLNE
  6
CONTINUOUS
 62
    41
100
AcDbLine
 10
692.801235
 20
223.811062
 30
0.0
 11
692.801235
 21
34.455701
 31
0.0
  0
LINE
  5
7C9
100
AcDbEntity
  8
V0-VYPLNE
  6
CONTINUOUS
 62
    41
100
AcDbLine
 10
712.790499
 20
223.811062
 30
0.0
 11
712.790499
 21
34.455701
 31
0.0
  0
LINE
  5
7CA
100
AcDbEntity
  8
V0-VYPLNE
  6
CONTINUOUS
 62
    41
100
AcDbLine
 10
732.779764
 20
223.811062
 30
0.0
 11
732.779764
 21
34.455701
 31
0.0
  0
LINE
  5
7CB
100
AcDbEntity
  8
V0-VYPLNE
  6
CONTINUOUS
 62
    41
100
AcDbLine
 10
752.769028
 20
223.811062
 30
0.0
 11
752.769028
 21
34.455701
 31
0.0
  0
LINE
  5
7CC
100
AcDbEntity
  8
V0-VYPLNE
  6
DASHDOT
 62
    63
100
AcDbLine
 10
1020.112316
 20
-614.418602
 30
0.0
 11
1020.112316
 21
-577.44357
 31
0.0
  0
LINE
  5
7CD
100
AcDbEntity
  8
V0-VYPLNE
  6
DASHDOT
 62
    63
100
AcDbLine
 10
1063.112316
 20
-614.418602
 30
0.0
 11
1063.112316
 21
-577.44357
 31
0.0
  0
LINE
  5
7CE
100
AcDbEntity
  8
V0-VYPLNE
  6
DASHDOT
 62
    63
100
AcDbLine
 10
239.509206
 20
52.111111
 30
0.0
 11
281.555605
 21
52.111111
 31
0.0
  0
LINE
  5
7CF
100
AcDbEntity
  8
V0-VYPLNE
  6
DASHDOT
 62
    63
100
AcDbLine
 10
239.509206
 20
202.111111
 30
0.0
 11
286.60117
 21
202.111111
 31
0.0
  0
CIRCLE
  5
7D0
100
AcDbEntity
  8
V0-OBRYS
  6
CONTINUOUS
 62
    90
100
AcDbCircle
 10
1063.112316
 20
202.111111
 30
0.0
 40
11.0
  0
CIRCLE
  5
7D1
100
AcDbEntity
  8
V0-OBRYS
  6
CONTINUOUS
 62
    90
100
AcDbCircle
 10
1020.112316
 20
52.111111
 30
0.0
 40
11.0
  0
LINE
  5
7D2
100
AcDbEntity
  8
V0-OBRYS
  6
CONTINUOUS
 62
    90
100
AcDbLine
 10
1009.112316
 20
-614.418602
 30
0.0
 11
1031.112316
 21
-614.418602
 31
0.0
  0
LINE
  5
7D3
100
AcDbEntity
  8
V0-VYPLNE
  6
DASHDOT
 62
    63
100
AcDbLine
 10
1020.112316
 20
24.241044
 30
0.0
 11
1020.112316
 21
75.342276
 31
0.0
  0
LINE
  5
7D4
100
AcDbEntity
  8
V0-VYPLNE
  6
DASHDOT
 62
    63
100
AcDbLine
 10
1063.112316
 20
179.683223
 30
0.0
 11
1063.112316
 21
218.566695
 31
0.0
  0
LINE
  5
7D5
100
AcDbEntity
  8
V0-OBRYS
100
AcDbLine
 10
1031.112316
 20
-590.043324
 30
0.0
 11
1031.112316
 21
-614.418602
 31
0.0
  0
LINE
  5
7D6
100
AcDbEntity
  8
V0-OBRYS
100
AcDbLine
 10
1009.112316
 20
-590.043324
 30
0.0
 11
1009.112316
 21
-614.418602
 31
0.0
  0
LINE
  5
7D7
100
AcDbEntity
  8
V0-OBRYS
100
AcDbLine
 10
1074.112316
 20
-590.043324
 30
0.0
 11
1074.112316
 21
-614.418602
 31
0.0
  0
LINE
  5
7D8
100
AcDbEntity
  8
V0-OBRYS
100
AcDbLine
 10
1052.112316
 20
-590.043324
 30
0.0
 11
1052.112316
 21
-614.418602
 31
0.0
  0
LINE
  5
7D9
100
AcDbEntity
  8
V0-OBRYS
  6
CONTINUOUS
 62
    90
100
AcDbLine
 10
1052.112316
 20
-614.418602
 30
0.0
 11
1074.112316
 21
-614.418602
 31
0.0
  0
LINE
  5
7DA
100
AcDbEntity
  8
V0-OBRYS
  6
CONTINUOUS
 62
    90
100
AcDbLine
 10
239.509206
 20
213.111111
 30
0.0
 11
239.509206
 21
191.111111
 31
0.0
  0
LINE
  5
7DB
100
AcDbEntity
  8
V0-VYPLNE
  6
DASHDOT
 62
    63
100
AcDbLine
 10
1046.800037
 20
202.111111
 30
0.0
 11
1087.903342
 21
202.111111
 31
0.0
  0
LINE
  5
7DC
100
AcDbEntity
  8
V0-VYPLNE
  6
DASHDOT
 62
    63
100
AcDbLine
 10
999.708072
 20
52.111111
 30
0.0
 11
1048.607641
 21
52.111111
 31
0.0
  0
LINE
  5
7DD
100
AcDbEntity
  8
V0-OBRYS
100
AcDbLine
 10
239.509206
 20
63.111111
 30
0.0
 11
267.865649
 21
63.111111
 31
0.0
  0
LINE
  5
7DE
100
AcDbEntity
  8
V0-OBRYS
100
AcDbLine
 10
239.509206
 20
41.111111
 30
0.0
 11
267.865649
 21
41.111111
 31
0.0
  0
LINE
  5
7DF
100
AcDbEntity
  8
V0-OBRYS
100
AcDbLine
 10
267.865649
 20
191.111111
 30
0.0
 11
239.509206
 21
191.111111
 31
0.0
  0
LINE
  5
7E0
100
AcDbEntity
  8
V0-OBRYS
100
AcDbLine
 10
267.865649
 20
213.111111
 30
0.0
 11
239.509206
 21
213.111111
 31
0.0
  0
LINE
  5
7E1
100
AcDbEntity
  8
V0-OBRYS
  6
CONTINUOUS
 62
    90
100
AcDbLine
 10
239.509206
 20
63.111111
 30
0.0
 11
239.509206
 21
41.111111
 31
0.0
  0
DIMENSION
  5
7E2
100
AcDbEntity
  8
V0-VYPLNE
  6
CONTINUOUS
 62
    41
100
AcDbDimension
  2
*D9
 10
1020.112316
 20
-7.69194
 30
0.0
 11
978.112316
 21
4.30806
 31
0.0
 70
    32
  3
ED40
100
AcDbAlignedDimension
 13
936.112316
 23
8.611111
 33
0.0
 14
1020.112316
 24
24.241044
 34
0.0
100
AcDbRotatedDimension
  0
DIMENSION
  5
7E3
100
AcDbEntity
  8
V0-VYPLNE
  6
CONTINUOUS
 62
    41
100
AcDbDimension
  2
*D10
 10
1063.112316
 20
-7.69194
 30
0.0
 11
1041.612316
 21
4.30806
 31
0.0
 70
    32
  3
ED40
100
AcDbAlignedDimension
 13
1020.112316
 23
24.241044
 33
0.0
 14
1063.112316
 24
179.683223
 34
0.0
100
AcDbRotatedDimension
  0
DIMENSION
  5
7E4
100
AcDbEntity
  8
V0-VYPLNE
  6
CONTINUOUS
 62
    41
100
AcDbDimension
  2
*D11
 10
200.82652
 20
52.111111
 30
0.0
 11
188.82652
 21
127.111111
 31
0.0
 70
    32
  3
ED40
100
AcDbAlignedDimension
 13
239.509206
 23
202.111111
 33
0.0
 14
239.509206
 24
52.111111
 34
0.0
 50
90.0
100
AcDbRotatedDimension
  0
DIMENSION
  5
7E5
100
AcDbEntity
  8
V0-VYPLNE
  6
CONTINUOUS
 62
    41
100
AcDbDimension
  2
*D12
 10
267.865649
 20
-58.396975
 30
0.0
 11
253.687427
 21
-46.395007
 31
0.0
 70
    32
  3
ED40
100
AcDbAlignedDimension
 13
239.509206
 23
41.111111
 33
0.0
 14
267.865649
 24
15.187501
 34
0.0
100
AcDbRotatedDimension
  0
LEADER
  5
7E6
100
AcDbEntity
  8
V0-VYPLNE
  6
CONTINUOUS
 62
    41
100
AcDbLeader
  3
ED40
 73
     0
 75
     1
 40
20.003937
 41
41.201181
 76
     3
 10
1056.891173
 20
209.116205
 30
0.0
 10
1036.572197
 20
244.492685
 30
0.0
 10
1021.572197
 20
244.492685
 30
0.0
 77
    41
340
7E7
  0
MTEXT
  5
7E7
102
{ACAD_REACTORS
330
7E6
102
}
100
AcDbEntity
  8
V0-VYPLNE
  6
CONTINUOUS
 62
    41
100
AcDbMText
 10
1019.572197
 20
256.494654
 30
0.0
 40
20.0
 41
0.0
 71
     6
 72
     1
  1
\A1;%%c22
  7
ED20
  0
MTEXT
  5
7E8
100
AcDbEntity
  8
V0-NAZVY
100
AcDbMText
 10
1028.095085
 20
-214.496261
 30
0.0
 40
26.25
 41
215.92256
 71
     5
 72
     5
  1
IBW-200
  7
ED10
  0
MTEXT
  5
7E9
100
AcDbEntity
  8
V0-NAZVY
100
AcDbMText
 10
1028.095085
 20
158.615427
 30
0.0
 40
26.25
 41
215.92256
 71
     5
 72
     5
  1
IBW-200
  7
ED10
  0
MTEXT
  5
7EA
100
AcDbEntity
  8
V0-NAZVY
100
AcDbMText
 10
570.630283
 20
274.582573
 30
0.0
 40
26.25
 41
215.92256
 71
     5
 72
     5
  1
IBW-200
  7
ED10
  0
ENDBLK
  5
7EC
100
AcDbEntity
  8
0
 62
    41
100
AcDbBlockEnd
  0
BLOCK
  5
9DA
100
AcDbEntity
  8
0
100
AcDbBlockBegin
  2
LAM
 70
     0
 10
0.0
 20
0.0
 30
0.0
  3
LAM
  1

  0
LINE
  5
9DB
100
AcDbEntity
  8
V0-OBRYS
100
AcDbLine
 10
-195.066091
 20
99.623835
 30
0.0
 11
-195.066091
 21
-99.639509
 31
0.0
  0
LINE
  5
9DC
100
AcDbEntity
  8
V0-OBRYS
100
AcDbLine
 10
-195.066091
 20
34.5
 30
0.0
 11
195.066091
 21
34.5
 31
0.0
  0
LINE
  5
9DD
100
AcDbEntity
  8
V0-OBRYS
100
AcDbLine
 10
-195.066091
 20
31.5
 30
0.0
 11
195.066091
 21
31.5
 31
0.0
  0
LINE
  5
9DE
100
AcDbEntity
  8
V0-OBRYS
100
AcDbLine
 10
-195.066091
 20
-31.5
 30
0.0
 11
195.066091
 21
-31.5
 31
0.0
  0
LINE
  5
9DF
100
AcDbEntity
  8
V0-OBRYS
100
AcDbLine
 10
-195.066091
 20
-34.5
 30
0.0
 11
195.066091
 21
-34.5
 31
0.0
  0
LINE
  5
9E0
100
AcDbEntity
  8
V0-OBRYS
100
AcDbLine
 10
-195.066091
 20
-97.5
 30
0.0
 11
195.066091
 21
-97.5
 31
0.0
  0
LINE
  5
9E1
100
AcDbEntity
  8
V0-OBRYS
100
AcDbLine
 10
-195.066091
 20
97.5
 30
0.0
 11
195.066091
 21
97.5
 31
0.0
  0
POINT
  5
9E2
100
AcDbEntity
  8
V0-VYPLNE
  6
CONTINUOUS
 62
    41
100
AcDbPoint
 10
0.0
 20
0.0
 30
0.0
  0
LINE
  5
9E3
100
AcDbEntity
  8
V0-OBRYS
100
AcDbLine
 10
195.066091
 20
99.623835
 30
0.0
 11
195.066091
 21
-99.639509
 31
0.0
  0
MLINE
  5
9E4
100
AcDbEntity
  8
V0-OBRYS
100
AcDbMline
  2
STANDARD
340
13
 40
3.0
 70
     1
 71
     1
 72
     2
 73
     2
 10
220.0
 20
0.0
 30
0.0
210
0.0
220
0.0
230
1.0
 11
220.0
 21
0.0
 31
0.0
 12
1.0
 22
0.0
 32
0.0
 13
2.220446049250313E-16
 23
1.0
 33
0.0
 74
     2
 41
1.5
 41
0.0
 75
     0
 74
     2
 41
-1.5
 41
0.0
 75
     0
 11
255.5408283201877
 21
0.0
 31
0.0
 12
1.0
 22
0.0
 32
0.0
 13
2.220446049250313E-16
 23
1.0
 33
0.0
 74
     2
 41
1.5
 41
0.0
 75
     0
 74
     2
 41
-1.5
 41
0.0
 75
     0
  0
ENDBLK
  5
9E5
100
AcDbEntity
  8
0
100
AcDbBlockEnd
  0
BLOCK
  5
9E7
100
AcDbEntity
  8
0
100
AcDbBlockBegin
  2
TAH
 70
     0
 10
0.0
 20
0.0
 30
0.0
  3
TAH
  1

  0
LINE
  5
9E8
100
AcDbEntity
  8
V0-OBRYS
100
AcDbLine
 10
-33.035294
 20
108.610965
 30
0.0
 11
-33.035294
 21
-52.196105
 31
0.0
  0
ARC
  5
9E9
100
AcDbEntity
  8
V0-OBRYS
  6
CONTINUOUS
 62
    90
100
AcDbCircle
 10
-30.035294
 20
-51.690061
 30
0.0
 40
3.042381
100
AcDbArc
 50
189.574585
 51
350.425415
  0
LINE
  5
9EA
100
AcDbEntity
  8
V0-OBRYS
100
AcDbLine
 10
-27.035294
 20
-25.248121
 30
0.0
 11
-27.035294
 21
-52.196105
 31
0.0
  0
LINE
  5
9EB
100
AcDbEntity
  8
V0-OBRYS
  6
DASHDOT
 62
    63
100
AcDbLine
 10
-29.765191
 20
-17.222336
 30
0.0
 11
-29.765191
 21
-30.858666
 31
0.0
  0
LINE
  5
9EC
100
AcDbEntity
  8
V0-VYPLNE
  6
DASHDOT
 62
    63
100
AcDbLine
 10
-39.022287
 20
-23.389035
 30
0.0
 11
-19.528226
 21
-23.389035
 31
0.0
  0
ARC
  5
9ED
100
AcDbEntity
  8
V0-OBRYS
  6
CONTINUOUS
 62
    90
100
AcDbCircle
 10
-30.035294
 20
-23.389035
 30
0.0
 40
3.022397
100
AcDbArc
 50
123.528646
 51
301.006432
  0
CIRCLE
  5
9EE
100
AcDbEntity
  8
V0-OBRYS
  6
CONTINUOUS
 62
    90
100
AcDbCircle
 10
-30.035294
 20
-23.389035
 30
0.0
 40
1.657882
  0
MLINE
  5
9EF
100
AcDbEntity
  8
V0-OBRYS
  6
DASHDOT
 62
    63
100
AcDbMline
  2
STANDARD
340
13
 40
6.0
 70
     1
 71
     1
 72
     2
 73
     2
 10
0.0
 20
0.1641557389507397
 30
0.0
210
0.0
220
0.0
230
1.0
 11
0.0
 21
0.1641557389507397
 31
0.0
 12
-0.7880797660307936
 22
-0.6155731332448237
 32
0.0
 13
0.6155731332448234
 23
-0.7880797660307939
 33
0.0
 74
     2
 41
3.0
 41
0.0
 75
     0
 74
     2
 41
-3.0
 41
0.0
 75
     0
 11
-30.36383408773497
 21
-23.55319026125434
 31
0.0
 12
-0.7880797660307936
 22
-0.6155731332448237
 32
0.0
 13
0.6155731332448234
 23
-0.7880797660307939
 33
0.0
 74
     2
 41
3.0
 41
0.0
 75
     0
 74
     2
 41
-3.0
 41
0.0
 75
     0
  0
LINE
  5
9F0
100
AcDbEntity
  8
V0-OBRYS
100
AcDbLine
 10
-27.035294
 20
40.920362
 30
0.0
 11
-27.035294
 21
-18.429957
 31
0.0
  0
LINE
  5
9F1
100
AcDbEntity
  8
V0-OBRYS
  6
DASHDOT
 62
    63
100
AcDbLine
 10
0.0
 20
7.163384
 30
0.0
 11
0.0
 21
-10.191943
 31
0.0
  0
LINE
  5
9F2
100
AcDbEntity
  8
V0-VYPLNE
  6
DASHED
 62
    52
100
AcDbLine
 10
-2.611721
 20
29.884731
 30
0.0
 11
6.264288
 21
-35.160631
 31
0.0
  0
LINE
  5
9F3
100
AcDbEntity
  8
V0-VYPLNE
  6
DASHDOT
 62
    63
100
AcDbLine
 10
-9.315534
 20
0.0
 30
0.0
 11
10.178527
 21
0.0
 31
0.0
  0
ARC
  5
9F4
100
AcDbEntity
  8
V0-OBRYS
  6
CONTINUOUS
 62
    90
100
AcDbCircle
 10
-0.328541
 20
0.0
 30
0.0
 40
3.022397
100
AcDbArc
 50
292.091705
 51
109.569491
  0
CIRCLE
  5
9F5
100
AcDbEntity
  8
V0-OBRYS
  6
CONTINUOUS
 62
    90
100
AcDbCircle
 10
-0.328541
 20
0.0
 30
0.0
 40
1.415509
  0
MLINE
  5
9F6
100
AcDbEntity
  8
V0-OBRYS
  6
DASHDOT
 62
    63
100
AcDbMline
  2
STANDARD
340
13
 40
6.0
 70
     1
 71
     1
 72
     2
 73
     2
 10
0.0
 20
66.16415573895074
 30
0.0
210
0.0
220
0.0
230
1.0
 11
0.0
 21
66.16415573895074
 31
0.0
 12
-0.7880797660307936
 22
-0.6155731332448237
 32
0.0
 13
0.6155731332448234
 23
-0.7880797660307939
 33
0.0
 74
     2
 41
3.0
 41
0.0
 75
     0
 74
     2
 41
-3.0
 41
0.0
 75
     0
 11
-30.36383408773497
 21
42.44680973874565
 31
0.0
 12
-0.7880797660307936
 22
-0.6155731332448237
 32
0.0
 13
0.6155731332448234
 23
-0.7880797660307939
 33
0.0
 74
     2
 41
3.0
 41
0.0
 75
     0
 74
     2
 41
-3.0
 41
0.0
 75
     0
  0
LINE
  5
9F7
100
AcDbEntity
  8
V0-VYPLNE
  6
DASHDOT
 62
    63
100
AcDbLine
 10
-39.022287
 20
42.610965
 30
0.0
 11
-19.528226
 21
42.610965
 31
0.0
  0
CIRCLE
  5
9F8
100
AcDbEntity
  8
V0-OBRYS
  6
CONTINUOUS
 62
    90
100
AcDbCircle
 10
-30.035294
 20
42.610965
 30
0.0
 40
1.657882
  0
ARC
  5
9F9
100
AcDbEntity
  8
V0-OBRYS
  6
CONTINUOUS
 62
    90
100
AcDbCircle
 10
-30.035294
 20
42.610965
 30
0.0
 40
3.022397
100
AcDbArc
 50
123.528646
 51
301.006432
  0
LINE
  5
9FA
100
AcDbEntity
  8
V0-OBRYS
  6
DASHDOT
 62
    63
100
AcDbLine
 10
-30.525229
 20
48.777664
 30
0.0
 11
-30.525229
 21
35.141334
 31
0.0
  0
LINE
  5
9FB
100
AcDbEntity
  8
V0-OBRYS
  6
DASHDOT
 62
    63
100
AcDbLine
 10
0.0
 20
75.345028
 30
0.0
 11
0.0
 21
49.312037
 31
0.0
  0
ARC
  5
9FC
100
AcDbEntity
  8
V0-OBRYS
  6
CONTINUOUS
 62
    90
100
AcDbCircle
 10
-0.328541
 20
66.0
 30
0.0
 40
3.022397
100
AcDbArc
 50
292.091705
 51
109.569491
  0
CIRCLE
  5
9FD
100
AcDbEntity
  8
V0-OBRYS
  6
CONTINUOUS
 62
    90
100
AcDbCircle
 10
-0.328541
 20
66.0
 30
0.0
 40
1.415509
  0
LINE
  5
9FE
100
AcDbEntity
  8
V0-VYPLNE
  6
DASHDOT
 62
    63
100
AcDbLine
 10
-9.315534
 20
66.0
 30
0.0
 11
10.178527
 21
66.0
 31
0.0
  0
LINE
  5
9FF
100
AcDbEntity
  8
V0-VYPLNE
  6
DASHED
 62
    52
100
AcDbLine
 10
-2.611721
 20
95.884731
 30
0.0
 11
6.264288
 21
30.839369
 31
0.0
  0
LINE
  5
A00
100
AcDbEntity
  8
V0-VYPLNE
  6
DASHDOT
 62
    63
100
AcDbLine
 10
-9.315534
 20
132.0
 30
0.0
 11
10.178527
 21
132.0
 31
0.0
  0
MLINE
  5
A01
100
AcDbEntity
  8
V0-OBRYS
  6
DASHDOT
 62
    63
100
AcDbMline
  2
STANDARD
340
13
 40
6.0
 70
     1
 71
     1
 72
     2
 73
     2
 10
0.0
 20
132.1641557389507
 30
0.0
210
0.0
220
0.0
230
1.0
 11
0.0
 21
132.1641557389507
 31
0.0
 12
-0.7880797660307936
 22
-0.6155731332448237
 32
0.0
 13
0.6155731332448234
 23
-0.7880797660307939
 33
0.0
 74
     2
 41
3.0
 41
0.0
 75
     0
 74
     2
 41
-3.0
 41
0.0
 75
     0
 11
-30.36383408773497
 21
108.4468097387456
 31
0.0
 12
-0.7880797660307936
 22
-0.6155731332448237
 32
0.0
 13
0.6155731332448234
 23
-0.7880797660307939
 33
0.0
 74
     2
 41
3.0
 41
0.0
 75
     0
 74
     2
 41
-3.0
 41
0.0
 75
     0
  0
LINE
  5
A02
100
AcDbEntity
  8
V0-VYPLNE
  6
DASHDOT
 62
    63
100
AcDbLine
 10
-39.022287
 20
108.610965
 30
0.0
 11
-19.528226
 21
108.610965
 31
0.0
  0
CIRCLE
  5
A03
100
AcDbEntity
  8
V0-OBRYS
  6
CONTINUOUS
 62
    90
100
AcDbCircle
 10
-30.035294
 20
108.610965
 30
0.0
 40
1.657882
  0
ARC
  5
A04
100
AcDbEntity
  8
V0-OBRYS
  6
CONTINUOUS
 62
    90
100
AcDbCircle
 10
-30.035294
 20
108.610965
 30
0.0
 40
3.022397
100
AcDbArc
 50
123.528646
 51
301.006432
  0
LINE
  5
A05
100
AcDbEntity
  8
V0-OBRYS
  6
DASHDOT
 62
    63
100
AcDbLine
 10
-30.525229
 20
116.089131
 30
0.0
 11
-30.525229
 21
102.02428
 31
0.0
  0
LINE
  5
A06
100
AcDbEntity
  8
V0-OBRYS
  6
DASHDOT
 62
    63
100
AcDbLine
 10
0.0
 20
142.277182
 30
0.0
 11
0.0
 21
116.254014
 31
0.0
  0
CIRCLE
  5
A07
100
AcDbEntity
  8
V0-OBRYS
  6
CONTINUOUS
 62
    90
100
AcDbCircle
 10
-0.328541
 20
132.0
 30
0.0
 40
1.415509
  0
ARC
  5
A08
100
AcDbEntity
  8
V0-OBRYS
  6
CONTINUOUS
 62
    90
100
AcDbCircle
 10
-0.328541
 20
132.0
 30
0.0
 40
3.022397
100
AcDbArc
 50
292.091705
 51
109.569491
  0
LINE
  5
A09
100
AcDbEntity
  8
V0-OBRYS
100
AcDbLine
 10
-27.035294
 20
106.756285
 30
0.0
 11
-27.035294
 21
47.237838
 31
0.0
  0
LINE
  5
A0A
100
AcDbEntity
  8
V0-VYPLNE
  6
DASHED
 62
    52
100
AcDbLine
 10
-2.611721
 20
161.884731
 30
0.0
 11
6.264288
 21
96.839369
 31
0.0
  0
ENDBLK
  5
A0B
100
AcDbEntity
  8
0
100
AcDbBlockEnd
  0
BLOCK
  5
142A
100
AcDbEntity
  8
0
100
AcDbBlockBegin
  2
N
 70
     0
 10
0.0
 20
0.0
 30
0.0
  3
N
  1

  0
LINE
  5
142B
100
AcDbEntity
  8
V0-VYPLNE
  6
CONTINUOUS
 62
    41
100
AcDbLine
 10
-19.36603
 20
0.0
 30
0.0
 11
-33.770429
 21
5.928176
 31
0.0
  0
LINE
  5
142C
100
AcDbEntity
  8
V0-OBRYS
100
AcDbLine
 10
0.0
 20
49.5
 30
0.0
 11
0.0
 21
-49.5
 31
0.0
  0
LINE
  5
142D
100
AcDbEntity
  8
V0-OBRYS
100
AcDbLine
 10
-67.5
 20
-49.5
 30
0.0
 11
-67.5
 21
49.5
 31
0.0
  0
LINE
  5
142E
100
AcDbEntity
  8
V0-OBRYS
100
AcDbLine
 10
-89.5
 20
-25.0
 30
0.0
 11
-89.5
 21
25.0
 31
0.0
  0
LINE
  5
142F
100
AcDbEntity
  8
V0-OBRYS
100
AcDbLine
 10
-94.5
 20
-25.0
 30
0.0
 11
-94.5
 21
25.0
 31
0.0
  0
POINT
  5
1430
100
AcDbEntity
  8
V0-VYPLNE
 62
    41
100
AcDbPoint
 10
0.0
 20
0.0
 30
0.0
  0
LINE
  5
1431
100
AcDbEntity
  8
V0-VYPLNE
100
AcDbLine
 10
17.898154
 20
0.0
 30
0.0
 11
-113.1928
 21
0.0
 31
0.0
  0
LINE
  5
1432
100
AcDbEntity
  8
V0-OBRYS
100
AcDbLine
 10
0.0
 20
-49.5
 30
0.0
 11
-67.5
 21
-49.5
 31
0.0
  0
LINE
  5
1433
100
AcDbEntity
  8
V0-OBRYS
100
AcDbLine
 10
-67.5
 20
-25.0
 30
0.0
 11
-94.5
 21
-25.0
 31
0.0
  0
LINE
  5
1434
100
AcDbEntity
  8
V0-VYPLNE
  6
CONTINUOUS
 62
    41
100
AcDbLine
 10
-19.36603
 20
0.0
 30
0.0
 11
-49.022147
 21
0.0
 31
0.0
  0
LINE
  5
1435
100
AcDbEntity
  8
V0-VYPLNE
  6
CONTINUOUS
 62
    41
100
AcDbLine
 10
-19.36603
 20
0.0
 30
0.0
 11
-33.770429
 21
-5.928176
 31
0.0
  0
LINE
  5
1436
100
AcDbEntity
  8
V0-VYPLNE
  6
CONTINUOUS
 62
    41
100
AcDbLine
 10
-19.36603
 20
0.0
 30
0.0
 11
-19.36603
 21
0.0
 31
0.0
  0
TEXT
  5
1437
100
AcDbEntity
  8
V0-VYPLNE
 62
     6
100
AcDbText
 10
-74.458283
 20
66.298225
 30
0.0
 40
10.0
  1
TDM-100
  7
ED10
100
AcDbText
  0
LINE
  5
1438
100
AcDbEntity
  8
V0-OBRYS
100
AcDbLine
 10
0.0
 20
49.5
 30
0.0
 11
-67.5
 21
49.5
 31
0.0
  0
LINE
  5
1439
100
AcDbEntity
  8
V0-OBRYS
100
AcDbLine
 10
-67.5
 20
25.0
 30
0.0
 11
-94.5
 21
25.0
 31
0.0
  0
LINE
  5
143A
100
AcDbEntity
  8
V0-OBRYS
100
AcDbLine
 10
-79.505373
 20
29.650138
 30
0.0
 11
-83.721371
 21
29.650138
 31
0.0
  0
LINE
  5
143B
100
AcDbEntity
  8
V0-OBRYS
100
AcDbLine
 10
-79.505373
 20
27.910056
 30
0.0
 11
-85.89759
 21
27.910056
 31
0.0
  0
LINE
  5
143C
100
AcDbEntity
  8
V0-OBRYS
100
AcDbLine
 10
-85.89759
 20
27.910056
 30
0.0
 11
-85.89759
 21
25.0
 31
0.0
  0
LINE
  5
143D
100
AcDbEntity
  8
V0-OBRYS
100
AcDbLine
 10
-83.721371
 20
29.650138
 30
0.0
 11
-83.721371
 21
27.910056
 31
0.0
  0
LINE
  5
143E
100
AcDbEntity
  8
V0-OBRYS
100
AcDbLine
 10
-79.505373
 20
29.650138
 30
0.0
 11
-75.289376
 21
29.650138
 31
0.0
  0
LINE
  5
143F
100
AcDbEntity
  8
V0-OBRYS
100
AcDbLine
 10
-79.505373
 20
27.910056
 30
0.0
 11
-73.113157
 21
27.910056
 31
0.0
  0
LINE
  5
1440
100
AcDbEntity
  8
V0-OBRYS
100
AcDbLine
 10
-75.289376
 20
27.910056
 30
0.0
 11
-79.505373
 21
27.910056
 31
0.0
  0
LINE
  5
1441
100
AcDbEntity
  8
V0-OBRYS
100
AcDbLine
 10
-73.113157
 20
27.910056
 30
0.0
 11
-73.113157
 21
25.0
 31
0.0
  0
LINE
  5
1442
100
AcDbEntity
  8
V0-OBRYS
100
AcDbLine
 10
-75.289376
 20
29.650138
 30
0.0
 11
-75.289376
 21
27.910056
 31
0.0
  0
ENDBLK
  5
1443
100
AcDbEntity
  8
0
100
AcDbBlockEnd
  0
BLOCK
  5
1445
100
AcDbEntity
  8
0
100
AcDbBlockBegin
  2
P
 70
     0
 10
0.0
 20
0.0
 30
0.0
  3
P
  1

  0
TEXT
  5
1446
100
AcDbEntity
  8
V0-VYPLNE
 62
     6
100
AcDbText
 10
-73.610967
 20
72.312927
 30
0.0
 40
10.0
  1
TDM-100
  7
ED10
100
AcDbText
  0
LINE
  5
1447
100
AcDbEntity
  8
V0-VYPLNE
  6
CONTINUOUS
 62
    41
100
AcDbLine
 10
-44.043639
 20
0.0
 30
0.0
 11
-58.448038
 21
5.928176
 31
0.0
  0
LINE
  5
1448
100
AcDbEntity
  8
V0-VYPLNE
  6
CONTINUOUS
 62
    41
100
AcDbLine
 10
-44.043639
 20
0.0
 30
0.0
 11
-58.448038
 21
-5.928176
 31
0.0
  0
LINE
  5
1449
100
AcDbEntity
  8
V0-VYPLNE
  6
CONTINUOUS
 62
    41
100
AcDbLine
 10
-44.043639
 20
0.0
 30
0.0
 11
-73.699756
 21
0.0
 31
0.0
  0
LINE
  5
144A
100
AcDbEntity
  8
V0-VYPLNE
100
AcDbLine
 10
17.271038
 20
0.0
 30
0.0
 11
-103.440173
 21
0.0
 31
0.0
  0
LINE
  5
144B
100
AcDbEntity
  8
V0-OBRYS
100
AcDbLine
 10
0.0
 20
49.5
 30
0.0
 11
-67.5
 21
49.5
 31
0.0
  0
LINE
  5
144C
100
AcDbEntity
  8
V0-OBRYS
100
AcDbLine
 10
0.0
 20
-49.5
 30
0.0
 11
-67.5
 21
-49.5
 31
0.0
  0
LINE
  5
144D
100
AcDbEntity
  8
V0-OBRYS
100
AcDbLine
 10
-67.5
 20
49.5
 30
0.0
 11
-67.5
 21
-49.5
 31
0.0
  0
LINE
  5
144E
100
AcDbEntity
  8
V0-OBRYS
100
AcDbLine
 10
-67.5
 20
-25.0
 30
0.0
 11
-94.5
 21
-25.0
 31
0.0
  0
LINE
  5
144F
100
AcDbEntity
  8
V0-OBRYS
100
AcDbLine
 10
-67.5
 20
25.0
 30
0.0
 11
-94.5
 21
25.0
 31
0.0
  0
LINE
  5
1450
100
AcDbEntity
  8
V0-OBRYS
100
AcDbLine
 10
-94.5
 20
25.0
 30
0.0
 11
-94.5
 21
-25.0
 31
0.0
  0
LINE
  5
1451
100
AcDbEntity
  8
V0-OBRYS
100
AcDbLine
 10
-89.5
 20
25.0
 30
0.0
 11
-89.5
 21
-25.0
 31
0.0
  0
LINE
  5
1452
100
AcDbEntity
  8
V0-OBRYS
100
AcDbLine
 10
-75.289376
 20
-4.215997
 30
0.0
 11
-83.721371
 21
-4.215997
 31
0.0
  0
LINE
  5
1453
100
AcDbEntity
  8
V0-OBRYS
100
AcDbLine
 10
-75.289376
 20
4.215997
 30
0.0
 11
-83.721371
 21
4.215997
 31
0.0
  0
LINE
  5
1454
100
AcDbEntity
  8
V0-OBRYS
100
AcDbLine
 10
-73.113157
 20
-6.392216
 30
0.0
 11
-85.89759
 21
-6.392216
 31
0.0
  0
LINE
  5
1455
100
AcDbEntity
  8
V0-OBRYS
100
AcDbLine
 10
-73.113157
 20
6.392216
 30
0.0
 11
-85.89759
 21
6.392216
 31
0.0
  0
LINE
  5
1456
100
AcDbEntity
  8
V0-OBRYS
100
AcDbLine
 10
-83.721371
 20
-4.215997
 30
0.0
 11
-83.721371
 21
4.215997
 31
0.0
  0
LINE
  5
1457
100
AcDbEntity
  8
V0-OBRYS
100
AcDbLine
 10
-85.89759
 20
-6.392216
 30
0.0
 11
-85.89759
 21
6.392216
 31
0.0
  0
LINE
  5
1458
100
AcDbEntity
  8
V0-OBRYS
100
AcDbLine
 10
-75.289376
 20
-4.215997
 30
0.0
 11
-75.289376
 21
4.215997
 31
0.0
  0
LINE
  5
1459
100
AcDbEntity
  8
V0-OBRYS
100
AcDbLine
 10
-73.113157
 20
-6.392216
 30
0.0
 11
-73.113157
 21
6.392216
 31
0.0
  0
LINE
  5
145A
100
AcDbEntity
  8
V0-OBRYS
100
AcDbLine
 10
0.0
 20
-49.5
 30
0.0
 11
0.0
 21
49.5
 31
0.0
  0
POINT
  5
145B
100
AcDbEntity
  8
V0-VYPLNE
 62
    41
100
AcDbPoint
 10
0.0
 20
0.0
 30
0.0
  0
LINE
  5
145C
100
AcDbEntity
  8
V0-VYPLNE
  6
CONTINUOUS
 62
    41
100
AcDbLine
 10
-44.043639
 20
0.0
 30
0.0
 11
-44.043639
 21
0.0
 31
0.0
  0
ENDBLK
  5
145D
100
AcDbEntity
  8
0
100
AcDbBlockEnd
  0
BLOCK
  5
145F
100
AcDbEntity
  8
0
100
AcDbBlockBegin
  2
B
 70
     0
 10
0.0
 20
0.0
 30
0.0
  3
B
  1

  0
TEXT
  5
1460
100
AcDbEntity
  8
V0-VYPLNE
 62
     6
100
AcDbText
 10
-27.22235
 20
66.298225
 30
0.0
 40
10.0
  1
TDM-100
  7
ED10
100
AcDbText
  0
POINT
  5
1461
100
AcDbEntity
  8
V0-VYPLNE
 62
    41
100
AcDbPoint
 10
0.0
 20
0.0
 30
0.0
  0
ARC
  5
1462
100
AcDbEntity
  8
V0-OBRYS
100
AcDbCircle
 10
0.0
 20
0.0
 30
0.0
 40
48.0
100
AcDbArc
 50
47.388015
 51
132.611985
  0
ARC
  5
1463
100
AcDbEntity
  8
V0-OBRYS
100
AcDbCircle
 10
0.0
 20
0.0
 30
0.0
 40
48.0
100
AcDbArc
 50
227.388015
 51
312.611985
  0
LINE
  5
1464
100
AcDbEntity
  8
V0-OBRYS
100
AcDbLine
 10
0.0
 20
27.910056
 30
0.0
 11
-6.392216
 21
27.910056
 31
0.0
  0
ARC
  5
1465
100
AcDbEntity
  8
V0-OBRYS
100
AcDbCircle
 10
-0.793262
 20
-7.425171
 30
0.0
 40
38.553234
100
AcDbArc
 50
261.53388
 51
304.488224
  0
LINE
  5
1466
100
AcDbEntity
  8
V0-OBRYS
100
AcDbLine
 10
-4.341204
 20
-24.620194
 30
0.0
 11
-7.72562
 21
-43.814168
 31
0.0
  0
ARC
  5
1467
100
AcDbEntity
  8
V0-OBRYS
100
AcDbCircle
 10
0.793262
 20
7.425171
 30
0.0
 40
38.553234
100
AcDbArc
 50
81.53388
 51
124.488224
  0
CIRCLE
  5
1468
100
AcDbEntity
  8
V0-OBRYS
100
AcDbCircle
 10
0.0
 20
0.0
 30
0.0
 40
22.0
  0
CIRCLE
  5
1469
100
AcDbEntity
  8
V0-OBRYS
100
AcDbCircle
 10
0.0
 20
0.0
 30
0.0
 40
25.0
  0
CIRCLE
  5
146A
100
AcDbEntity
  8
V0-OBRYS
100
AcDbCircle
 10
0.0
 20
0.0
 30
0.0
 40
49.5
  0
LINE
  5
146B
100
AcDbEntity
  8
V0-VYPLNE
100
AcDbLine
 10
-65.66541
 20
0.0
 30
0.0
 11
66.16455
 21
0.0
 31
0.0
  0
CIRCLE
  5
146C
100
AcDbEntity
  8
V0-OBRYS
100
AcDbCircle
 10
-13.0
 20
0.0
 30
0.0
 40
3.0
  0
ARC
  5
146D
100
AcDbEntity
  8
V0-OBRYS
100
AcDbCircle
 10
-7.425171
 20
0.793262
 30
0.0
 40
38.553234
100
AcDbArc
 50
171.53388
 51
214.488224
  0
ARC
  5
146E
100
AcDbEntity
  8
V0-OBRYS
100
AcDbCircle
 10
0.0
 20
0.0
 30
0.0
 40
48.0
100
AcDbArc
 50
137.388015
 51
222.611985
  0
ARC
  5
146F
100
AcDbEntity
  8
V0-OBRYS
100
AcDbCircle
 10
-5.81131
 20
-4.689468
 30
0.0
 40
38.553234
100
AcDbArc
 50
229.154839
 51
259.488224
  0
LINE
  5
1470
100
AcDbEntity
  8
V0-OBRYS
100
AcDbLine
 10
-11.122325
 20
-41.509082
 30
0.0
 11
-6.470476
 21
-24.148146
 31
0.0
  0
ARC
  5
1471
100
AcDbEntity
  8
V0-OBRYS
100
AcDbCircle
 10
-12.571214
 20
-41.120854
 30
0.0
 40
1.5
100
AcDbArc
 50
259.488224
 51
345.0
  0
ARC
  5
1472
100
AcDbEntity
  8
V0-OBRYS
100
AcDbCircle
 10
-6.248408
 20
-44.07464
 30
0.0
 40
1.5
100
AcDbArc
 50
170.0
 51
261.53388
  0
LINE
  5
1473
100
AcDbEntity
  8
V0-OBRYS
100
AcDbLine
 10
-16.206797
 20
-19.035224
 30
0.0
 11
-32.497436
 21
-35.325863
 31
0.0
  0
LINE
  5
1474
100
AcDbEntity
  8
V0-OBRYS
100
AcDbLine
 10
-19.035224
 20
-16.206797
 30
0.0
 11
-35.325863
 21
-32.497436
 31
0.0
  0
LINE
  5
1475
100
AcDbEntity
  8
V0-OBRYS
100
AcDbLine
 10
-20.478801
 20
-14.339411
 30
0.0
 11
-36.444133
 21
-25.518457
 31
0.0
  0
LINE
  5
1476
100
AcDbEntity
  8
V0-OBRYS
100
AcDbLine
 10
-37.216025
 20
-21.486682
 30
0.0
 11
-21.650635
 21
-12.5
 31
0.0
  0
ARC
  5
1477
100
AcDbEntity
  8
V0-OBRYS
100
AcDbCircle
 10
-37.966025
 20
-20.187644
 30
0.0
 40
1.5
100
AcDbArc
 50
214.488224
 51
300.0
  0
ARC
  5
1478
100
AcDbEntity
  8
V0-OBRYS
100
AcDbCircle
 10
-5.81131
 20
-4.689468
 30
0.0
 40
38.553234
100
AcDbArc
 50
216.53388
 51
223.206317
  0
ARC
  5
1479
100
AcDbEntity
  8
V0-OBRYS
100
AcDbCircle
 10
-35.583769
 20
-26.747185
 30
0.0
 40
1.5
100
AcDbArc
 50
125.0
 51
216.53388
  0
LINE
  5
147A
100
AcDbEntity
  8
V0-OBRYS
100
AcDbLine
 10
-19.035224
 20
16.206797
 30
0.0
 11
-35.325863
 21
32.497436
 31
0.0
  0
LINE
  5
147B
100
AcDbEntity
  8
V0-OBRYS
100
AcDbLine
 10
-16.206797
 20
19.035224
 30
0.0
 11
-32.497436
 21
35.325863
 31
0.0
  0
LINE
  5
147C
100
AcDbEntity
  8
V0-OBRYS
100
AcDbLine
 10
-24.620194
 20
4.341204
 30
0.0
 11
-43.814168
 21
7.72562
 31
0.0
  0
ARC
  5
147D
100
AcDbEntity
  8
V0-OBRYS
100
AcDbCircle
 10
-26.747185
 20
35.583769
 30
0.0
 40
1.5
100
AcDbArc
 50
35.0
 51
126.53388
  0
LINE
  5
147E
100
AcDbEntity
  8
V0-OBRYS
100
AcDbLine
 10
-41.509082
 20
11.122325
 30
0.0
 11
-24.148146
 21
6.470476
 31
0.0
  0
ARC
  5
147F
100
AcDbEntity
  8
V0-OBRYS
100
AcDbCircle
 10
-4.689468
 20
5.81131
 30
0.0
 40
38.553234
100
AcDbArc
 50
139.154839
 51
169.488224
  0
ARC
  5
1480
100
AcDbEntity
  8
V0-OBRYS
100
AcDbCircle
 10
-41.120854
 20
12.571214
 30
0.0
 40
1.5
100
AcDbArc
 50
169.488224
 51
255.0
  0
ARC
  5
1481
100
AcDbEntity
  8
V0-OBRYS
100
AcDbCircle
 10
-44.07464
 20
6.248408
 30
0.0
 40
1.5
100
AcDbArc
 50
80.0
 51
171.53388
  0
ARC
  5
1482
100
AcDbEntity
  8
V0-OBRYS
100
AcDbCircle
 10
-4.689468
 20
5.81131
 30
0.0
 40
38.553234
100
AcDbArc
 50
126.53388
 51
133.206317
  0
LINE
  5
1483
100
AcDbEntity
  8
V0-OBRYS
100
AcDbLine
 10
-6.392216
 20
27.910056
 30
0.0
 11
-6.392216
 21
24.16898
 31
0.0
  0
LINE
  5
1484
100
AcDbEntity
  8
V0-OBRYS
100
AcDbLine
 10
-14.339411
 20
20.478801
 30
0.0
 11
-25.518457
 21
36.444133
 31
0.0
  0
LINE
  5
1485
100
AcDbEntity
  8
V0-OBRYS
100
AcDbLine
 10
-21.486682
 20
37.216025
 30
0.0
 11
-12.5
 21
21.650635
 31
0.0
  0
ARC
  5
1486
100
AcDbEntity
  8
V0-OBRYS
100
AcDbCircle
 10
-20.187644
 20
37.966025
 30
0.0
 40
1.5
100
AcDbArc
 50
124.488224
 51
210.0
  0
ARC
  5
1487
100
AcDbEntity
  8
V0-OBRYS
100
AcDbCircle
 10
0.0
 20
0.0
 30
0.0
 40
48.0
100
AcDbArc
 50
317.388015
 51
42.611985
  0
CIRCLE
  5
1488
100
AcDbEntity
  8
V0-OBRYS
100
AcDbCircle
 10
13.0
 20
0.0
 30
0.0
 40
3.0
  0
ARC
  5
1489
100
AcDbEntity
  8
V0-OBRYS
100
AcDbCircle
 10
7.425171
 20
-0.793262
 30
0.0
 40
38.553234
100
AcDbArc
 50
351.53388
 51
34.488224
  0
LINE
  5
148A
100
AcDbEntity
  8
V0-VYPLNE
100
AcDbLine
 10
0.0
 20
0.0
 30
0.0
 11
0.0
 21
61.061939
 31
0.0
  0
ARC
  5
148B
100
AcDbEntity
  8
V0-OBRYS
100
AcDbCircle
 10
4.689468
 20
-5.81131
 30
0.0
 40
38.553234
100
AcDbArc
 50
319.154839
 51
349.488224
  0
LINE
  5
148C
100
AcDbEntity
  8
V0-OBRYS
100
AcDbLine
 10
19.035224
 20
-16.206797
 30
0.0
 11
35.325863
 21
-32.497436
 31
0.0
  0
LINE
  5
148D
100
AcDbEntity
  8
V0-OBRYS
100
AcDbLine
 10
24.620194
 20
-4.341204
 30
0.0
 11
43.814168
 21
-7.72562
 31
0.0
  0
LINE
  5
148E
100
AcDbEntity
  8
V0-OBRYS
100
AcDbLine
 10
41.509082
 20
-11.122325
 30
0.0
 11
24.148146
 21
-6.470476
 31
0.0
  0
LINE
  5
148F
100
AcDbEntity
  8
V0-VYPLNE
  6
DASHDOT
100
AcDbLine
 10
0.0
 20
0.0
 30
0.0
 11
0.0
 21
-63.049588
 31
0.0
  0
LINE
  5
1490
100
AcDbEntity
  8
V0-OBRYS
100
AcDbLine
 10
14.339411
 20
-20.478801
 30
0.0
 11
25.518457
 21
-36.444133
 31
0.0
  0
LINE
  5
1491
100
AcDbEntity
  8
V0-OBRYS
100
AcDbLine
 10
21.486682
 20
-37.216025
 30
0.0
 11
12.5
 21
-21.650635
 31
0.0
  0
LINE
  5
1492
100
AcDbEntity
  8
V0-OBRYS
100
AcDbLine
 10
16.206797
 20
-19.035224
 30
0.0
 11
32.497436
 21
-35.325863
 31
0.0
  0
ARC
  5
1493
100
AcDbEntity
  8
V0-OBRYS
100
AcDbCircle
 10
20.187644
 20
-37.966025
 30
0.0
 40
1.5
100
AcDbArc
 50
304.488224
 51
30.0
  0
ARC
  5
1494
100
AcDbEntity
  8
V0-OBRYS
100
AcDbCircle
 10
4.689468
 20
-5.81131
 30
0.0
 40
38.553234
100
AcDbArc
 50
306.53388
 51
313.206317
  0
ARC
  5
1495
100
AcDbEntity
  8
V0-OBRYS
100
AcDbCircle
 10
26.747185
 20
-35.583769
 30
0.0
 40
1.5
100
AcDbArc
 50
215.0
 51
306.53388
  0
ARC
  5
1496
100
AcDbEntity
  8
V0-OBRYS
100
AcDbCircle
 10
44.07464
 20
-6.248408
 30
0.0
 40
1.5
100
AcDbArc
 50
260.0
 51
351.53388
  0
ARC
  5
1497
100
AcDbEntity
  8
V0-OBRYS
100
AcDbCircle
 10
41.120854
 20
-12.571214
 30
0.0
 40
1.5
100
AcDbArc
 50
349.488224
 51
75.0
  0
LINE
  5
1498
100
AcDbEntity
  8
V0-OBRYS
100
AcDbLine
 10
19.035224
 20
16.206797
 30
0.0
 11
35.325863
 21
32.497436
 31
0.0
  0
ARC
  5
1499
100
AcDbEntity
  8
V0-OBRYS
100
AcDbCircle
 10
5.81131
 20
4.689468
 30
0.0
 40
38.553234
100
AcDbArc
 50
36.53388
 51
43.206317
  0
LINE
  5
149A
100
AcDbEntity
  8
V0-OBRYS
100
AcDbLine
 10
20.478801
 20
14.339411
 30
0.0
 11
36.444133
 21
25.518457
 31
0.0
  0
LINE
  5
149B
100
AcDbEntity
  8
V0-OBRYS
100
AcDbLine
 10
37.216025
 20
21.486682
 30
0.0
 11
21.650635
 21
12.5
 31
0.0
  0
ARC
  5
149C
100
AcDbEntity
  8
V0-OBRYS
100
AcDbCircle
 10
6.248408
 20
44.07464
 30
0.0
 40
1.5
100
AcDbArc
 50
350.0
 51
81.53388
  0
ARC
  5
149D
100
AcDbEntity
  8
V0-OBRYS
100
AcDbCircle
 10
5.81131
 20
4.689468
 30
0.0
 40
38.553234
100
AcDbArc
 50
49.154839
 51
79.488224
  0
LINE
  5
149E
100
AcDbEntity
  8
V0-OBRYS
100
AcDbLine
 10
6.392216
 20
27.910056
 30
0.0
 11
6.392216
 21
24.16898
 31
0.0
  0
LINE
  5
149F
100
AcDbEntity
  8
V0-OBRYS
100
AcDbLine
 10
11.122325
 20
41.509082
 30
0.0
 11
6.470476
 21
24.148146
 31
0.0
  0
LINE
  5
14A0
100
AcDbEntity
  8
V0-OBRYS
100
AcDbLine
 10
0.0
 20
27.910056
 30
0.0
 11
6.392216
 21
27.910056
 31
0.0
  0
LINE
  5
14A1
100
AcDbEntity
  8
V0-OBRYS
100
AcDbLine
 10
0.0
 20
29.650138
 30
0.0
 11
4.215997
 21
29.650138
 31
0.0
  0
LINE
  5
14A2
100
AcDbEntity
  8
V0-OBRYS
100
AcDbLine
 10
-4.215997
 20
27.910056
 30
0.0
 11
0.0
 21
27.910056
 31
0.0
  0
LINE
  5
14A3
100
AcDbEntity
  8
V0-OBRYS
100
AcDbLine
 10
0.0
 20
29.650138
 30
0.0
 11
-4.215997
 21
29.650138
 31
0.0
  0
LINE
  5
14A4
100
AcDbEntity
  8
V0-OBRYS
100
AcDbLine
 10
-4.215997
 20
29.650138
 30
0.0
 11
-4.215997
 21
27.910056
 31
0.0
  0
LINE
  5
14A5
100
AcDbEntity
  8
V0-OBRYS
100
AcDbLine
 10
4.921296
 20
27.910056
 30
0.0
 11
7.72562
 21
43.814168
 31
0.0
  0
LINE
  5
14A6
100
AcDbEntity
  8
V0-OBRYS
100
AcDbLine
 10
4.215997
 20
29.650138
 30
0.0
 11
4.215997
 21
27.910056
 31
0.0
  0
ARC
  5
14A7
100
AcDbEntity
  8
V0-OBRYS
100
AcDbCircle
 10
12.571214
 20
41.120854
 30
0.0
 40
1.5
100
AcDbArc
 50
79.488224
 51
165.0
  0
LINE
  5
14A8
100
AcDbEntity
  8
V0-OBRYS
100
AcDbLine
 10
16.206797
 20
19.035224
 30
0.0
 11
32.497436
 21
35.325863
 31
0.0
  0
ARC
  5
14A9
100
AcDbEntity
  8
V0-OBRYS
100
AcDbCircle
 10
37.966025
 20
20.187644
 30
0.0
 40
1.5
100
AcDbArc
 50
34.488224
 51
120.0
  0
ARC
  5
14AA
100
AcDbEntity
  8
V0-OBRYS
100
AcDbCircle
 10
35.583769
 20
26.747185
 30
0.0
 40
1.5
100
AcDbArc
 50
305.0
 51
36.53388
  0
ENDBLK
  5
14AB
100
AcDbEntity
  8
0
100
AcDbBlockEnd
  0
BLOCK
  5
1632
100
AcDbEntity
  8
0
100
AcDbBlockBegin
  2
*D25
 70
     1
 10
0.0
 20
0.0
 30
0.0
  3
*D25
  1

  0
LINE
  5
1633
100
AcDbEntity
  8
0
  6
BYBLOCK
 62
     0
100
AcDbLine
 10
-21.993614
 20
-36.954471
 30
0.0
 11
-21.993614
 21
-56.717196
 31
0.0
  0
LINE
  5
1634
100
AcDbEntity
  8
0
  6
BYBLOCK
 62
     0
100
AcDbLine
 10
37.506386
 20
-36.954471
 30
0.0
 11
37.506386
 21
-56.717196
 31
0.0
  0
LINE
  5
1635
100
AcDbEntity
  8
0
  6
BYBLOCK
 62
     0
100
AcDbLine
 10
-6.993614
 20
-55.467196
 30
0.0
 11
22.506386
 21
-55.467196
 31
0.0
  0
INSERT
  5
1636
100
AcDbEntity
  8
0
  6
BYBLOCK
 62
     0
100
AcDbBlockReference
  2
_OPEN
 10
-21.993614
 20
-55.467196
 30
0.0
 41
15.0
 42
15.0
 43
15.0
 50
180.0
  0
INSERT
  5
1637
100
AcDbEntity
  8
0
  6
BYBLOCK
 62
     0
100
AcDbBlockReference
  2
_OPEN
 10
37.506386
 20
-55.467196
 30
0.0
 41
15.0
 42
15.0
 43
15.0
  0
MTEXT
  5
1638
100
AcDbEntity
  8
0
  6
BYBLOCK
 62
     0
100
AcDbMText
 10
7.756386
 20
-48.967196
 30
0.0
 40
10.0
 41
0.0
 71
     5
 72
     1
  1
\A1;60
  7
ED10
  0
POINT
  5
1639
100
AcDbEntity
  8
DEFPOINTS
  6
BYBLOCK
 62
     0
100
AcDbPoint
 10
-21.993614
 20
-35.954471
 30
0.0
  0
POINT
  5
163A
100
AcDbEntity
  8
DEFPOINTS
  6
BYBLOCK
 62
     0
100
AcDbPoint
 10
37.506386
 20
-35.954471
 30
0.0
  0
POINT
  5
163B
100
AcDbEntity
  8
DEFPOINTS
  6
BYBLOCK
 62
     0
100
AcDbPoint
 10
37.506386
 20
-55.467196
 30
0.0
  0
ENDBLK
  5
163C
100
AcDbEntity
  8
0
100
AcDbBlockEnd
  0
BLOCK
  5
1773
100
AcDbEntity
  8
0
100
AcDbBlockBegin
  2
*D28
 70
     1
 10
0.0
 20
0.0
 30
0.0
  3
*D28
  1

  0
LINE
  5
1774
100
AcDbEntity
  8
0
  6
BYBLOCK
 62
     0
100
AcDbLine
 10
-22.993614
 20
100.545529
 30
0.0
 11
-41.885293
 21
100.545529
 31
0.0
  0
LINE
  5
1775
100
AcDbEntity
  8
0
  6
BYBLOCK
 62
     0
100
AcDbLine
 10
-22.993614
 20
-59.454471
 30
0.0
 11
-41.885293
 21
-59.454471
 31
0.0
  0
LINE
  5
1776
100
AcDbEntity
  8
0
  6
BYBLOCK
 62
     0
100
AcDbLine
 10
-40.635293
 20
85.545529
 30
0.0
 11
-40.635293
 21
-44.454471
 31
0.0
  0
INSERT
  5
1777
100
AcDbEntity
  8
0
  6
BYBLOCK
 62
     0
100
AcDbBlockReference
  2
_OPEN
 10
-40.635293
 20
100.545529
 30
0.0
 41
15.0
 42
15.0
 43
15.0
 50
90.0
  0
INSERT
  5
1778
100
AcDbEntity
  8
0
  6
BYBLOCK
 62
     0
100
AcDbBlockReference
  2
_OPEN
 10
-40.635293
 20
-59.454471
 30
0.0
 41
15.0
 42
15.0
 43
15.0
 50
270.0
  0
MTEXT
  5
1779
100
AcDbEntity
  8
0
  6
BYBLOCK
 62
     0
100
AcDbMText
 10
-47.135293
 20
20.545529
 30
0.0
 40
10.0
 41
0.0
 71
     5
 72
     1
  1
\A1;\U+2205160
  7
ED10
 11
0.0
 21
1.0
 31
0.0
  0
POINT
  5
177A
100
AcDbEntity
  8
DEFPOINTS
  6
BYBLOCK
 62
     0
100
AcDbPoint
 10
-21.993614
 20
100.545529
 30
0.0
  0
POINT
  5
177B
100
AcDbEntity
  8
DEFPOINTS
  6
BYBLOCK
 62
     0
100
AcDbPoint
 10
-21.993614
 20
-59.454471
 30
0.0
  0
POINT
  5
177C
100
AcDbEntity
  8
DEFPOINTS
  6
BYBLOCK
 62
     0
100
AcDbPoint
 10
-40.635293
 20
-59.454471
 30
0.0
  0
ENDBLK
  5
177D
100
AcDbEntity
  8
0
100
AcDbBlockEnd
  0
BLOCK
  5
1741
100
AcDbEntity
  8
0
100
AcDbBlockBegin
  2
*D33
 70
     1
 10
0.0
 20
0.0
 30
0.0
  3
*D33
  1

  0
LINE
  5
1742
100
AcDbEntity
  8
0
  6
BYBLOCK
 62
     0
100
AcDbLine
 10
323.308919
 20
124.933617
 30
0.0
 11
356.510999
 21
124.933617
 31
0.0
  0
LINE
  5
1743
100
AcDbEntity
  8
0
  6
BYBLOCK
 62
     0
100
AcDbLine
 10
323.308919
 20
105.374901
 30
0.0
 11
356.510999
 21
105.374901
 31
0.0
  0
LINE
  5
1744
100
AcDbEntity
  8
0
  6
BYBLOCK
 62
     0
100
AcDbLine
 10
355.260999
 20
139.933617
 30
0.0
 11
355.260999
 21
154.933617
 31
0.0
  0
LINE
  5
1745
100
AcDbEntity
  8
0
  6
BYBLOCK
 62
     0
100
AcDbLine
 10
355.260999
 20
90.374901
 30
0.0
 11
355.260999
 21
75.374901
 31
0.0
  0
LINE
  5
1746
100
AcDbEntity
  8
0
  6
BYBLOCK
 62
     0
100
AcDbLine
 10
355.260999
 20
124.933617
 30
0.0
 11
355.260999
 21
105.374901
 31
0.0
  0
INSERT
  5
1747
100
AcDbEntity
  8
0
  6
BYBLOCK
 62
     0
100
AcDbBlockReference
  2
_OPEN
 10
355.260999
 20
124.933617
 30
0.0
 41
15.0
 42
15.0
 43
15.0
 50
270.0
  0
INSERT
  5
1748
100
AcDbEntity
  8
0
  6
BYBLOCK
 62
     0
100
AcDbBlockReference
  2
_OPEN
 10
355.260999
 20
105.374901
 30
0.0
 41
15.0
 42
15.0
 43
15.0
 50
90.0
  0
MTEXT
  5
1749
100
AcDbEntity
  8
0
  6
BYBLOCK
 62
     0
100
AcDbMText
 10
348.760015
 20
115.154259
 30
0.0
 40
10.0
 41
0.0
 71
     5
 72
     1
  1
\A1;20
  7
ED10
 11
0.0
 21
1.0
 31
0.0
  0
POINT
  5
174A
100
AcDbEntity
  8
DEFPOINTS
  6
BYBLOCK
 62
     0
100
AcDbPoint
 10
322.308919
 20
124.933617
 30
0.0
  0
POINT
  5
174B
100
AcDbEntity
  8
DEFPOINTS
  6
BYBLOCK
 62
     0
100
AcDbPoint
 10
322.308919
 20
105.374901
 30
0.0
  0
POINT
  5
174C
100
AcDbEntity
  8
DEFPOINTS
  6
BYBLOCK
 62
     0
100
AcDbPoint
 10
355.260999
 20
105.374901
 30
0.0
  0
ENDBLK
  5
174D
100
AcDbEntity
  8
0
100
AcDbBlockEnd
  0
BLOCK
  5
1768
100
AcDbEntity
  8
0
100
AcDbBlockBegin
  2
*D34
 70
     1
 10
0.0
 20
0.0
 30
0.0
  3
*D34
  1

  0
LINE
  5
1769
100
AcDbEntity
  8
0
  6
BYBLOCK
 62
     0
100
AcDbLine
 10
38.506386
 20
107.045529
 30
0.0
 11
64.032192
 21
107.045529
 31
0.0
  0
LINE
  5
176A
100
AcDbEntity
  8
0
  6
BYBLOCK
 62
     0
100
AcDbLine
 10
38.506386
 20
-65.954471
 30
0.0
 11
64.032192
 21
-65.954471
 31
0.0
  0
LINE
  5
176B
100
AcDbEntity
  8
0
  6
BYBLOCK
 62
     0
100
AcDbLine
 10
62.782192
 20
92.045529
 30
0.0
 11
62.782192
 21
-50.954471
 31
0.0
  0
INSERT
  5
176C
100
AcDbEntity
  8
0
  6
BYBLOCK
 62
     0
100
AcDbBlockReference
  2
_OPEN
 10
62.782192
 20
107.045529
 30
0.0
 41
15.0
 42
15.0
 43
15.0
 50
90.0
  0
INSERT
  5
176D
100
AcDbEntity
  8
0
  6
BYBLOCK
 62
     0
100
AcDbBlockReference
  2
_OPEN
 10
62.782192
 20
-65.954471
 30
0.0
 41
15.0
 42
15.0
 43
15.0
 50
270.0
  0
MTEXT
  5
176E
100
AcDbEntity
  8
0
  6
BYBLOCK
 62
     0
100
AcDbMText
 10
56.282192
 20
20.545529
 30
0.0
 40
10.0
 41
0.0
 71
     5
 72
     1
  1
\A1;\U+2205173
  7
ED10
 11
0.0
 21
1.0
 31
0.0
  0
POINT
  5
176F
100
AcDbEntity
  8
DEFPOINTS
  6
BYBLOCK
 62
     0
100
AcDbPoint
 10
37.506386
 20
107.045529
 30
0.0
  0
POINT
  5
1770
100
AcDbEntity
  8
DEFPOINTS
  6
BYBLOCK
 62
     0
100
AcDbPoint
 10
37.506386
 20
-65.954471
 30
0.0
  0
POINT
  5
1771
100
AcDbEntity
  8
DEFPOINTS
  6
BYBLOCK
 62
     0
100
AcDbPoint
 10
62.782192
 20
-65.954471
 30
0.0
  0
ENDBLK
  5
1772
100
AcDbEntity
  8
0
100
AcDbBlockEnd
  0
BLOCK
  5
1677
100
AcDbEntity
  8
0
100
AcDbBlockBegin
  2
*D35
 70
     1
 10
0.0
 20
0.0
 30
0.0
  3
*D35
  1

  0
LINE
  5
1678
100
AcDbEntity
  8
0
  6
BYBLOCK
 62
     0
100
AcDbLine
 10
287.121005
 20
32.905178
 30
0.0
 11
244.324664
 21
28.725085
 31
0.0
  0
LINE
  5
1679
100
AcDbEntity
  8
0
  6
BYBLOCK
 62
     0
100
AcDbLine
 10
76.837948
 20
12.365973
 30
0.0
 11
61.908992
 21
10.907801
 31
0.0
  0
MTEXT
  5
167A
100
AcDbEntity
  8
0
  6
BYBLOCK
 62
     0
100
AcDbMText
 10
272.555438
 20
38.013432
 30
0.0
 40
10.0
 41
0.0
 71
     5
 72
     1
  1
\A1;\U+2205138
  7
ED10
 11
0.995264
 21
0.097211
 31
0.0
  0
LINE
  5
167B
100
AcDbEntity
  8
0
  6
BYBLOCK
 62
     0
100
AcDbLine
 10
91.766904
 20
13.824145
 30
0.0
 11
229.395708
 21
27.266913
 31
0.0
  0
INSERT
  5
167C
100
AcDbEntity
  8
0
  6
BYBLOCK
 62
     0
100
AcDbBlockReference
  2
_OPEN
 10
91.766904
 20
13.824145
 30
0.0
 41
15.0
 42
15.0
 43
15.0
 50
5.578617
  0
INSERT
  5
167D
100
AcDbEntity
  8
0
  6
BYBLOCK
 62
     0
100
AcDbBlockReference
  2
_OPEN
 10
229.395708
 20
27.266913
 30
0.0
 41
15.0
 42
15.0
 43
15.0
 50
185.578617
  0
POINT
  5
167E
100
AcDbEntity
  8
DEFPOINTS
  6
BYBLOCK
 62
     0
100
AcDbPoint
 10
229.395708
 20
27.266913
 30
0.0
  0
POINT
  5
167F
100
AcDbEntity
  8
DEFPOINTS
  6
BYBLOCK
 62
     0
100
AcDbPoint
 10
91.766904
 20
13.824145
 30
0.0
  0
ENDBLK
  5
1680
100
AcDbEntity
  8
0
100
AcDbBlockEnd
  0
BLOCK
  5
16C7
100
AcDbEntity
  8
0
100
AcDbBlockBegin
  2
*D36
 70
     1
 10
0.0
 20
0.0
 30
0.0
  3
*D36
  1

  0
LINE
  5
16C8
100
AcDbEntity
  8
0
  6
BYBLOCK
 62
     0
100
AcDbLine
 10
282.974522
 20
54.968735
 30
0.0
 11
241.580541
 21
43.32664
 31
0.0
  0
LINE
  5
16C9
100
AcDbEntity
  8
0
  6
BYBLOCK
 62
     0
100
AcDbLine
 10
79.582071
 20
-2.235582
 30
0.0
 11
65.14231
 21
-6.296778
 31
0.0
  0
MTEXT
  5
16CA
100
AcDbEntity
  8
0
  6
BYBLOCK
 62
     0
100
AcDbMText
 10
267.73756
 20
57.435515
 30
0.0
 40
10.0
 41
0.0
 71
     5
 72
     1
  1
\A1;\U+2205138
  7
ED10
 11
0.962651
 21
0.270746
 31
0.0
  0
LINE
  5
16CB
100
AcDbEntity
  8
0
  6
BYBLOCK
 62
     0
100
AcDbLine
 10
94.021831
 20
1.825615
 30
0.0
 11
227.140781
 21
39.265444
 31
0.0
  0
INSERT
  5
16CC
100
AcDbEntity
  8
0
  6
BYBLOCK
 62
     0
100
AcDbBlockReference
  2
_OPEN
 10
94.021831
 20
1.825615
 30
0.0
 41
15.0
 42
15.0
 43
15.0
 50
15.708687
  0
INSERT
  5
16CD
100
AcDbEntity
  8
0
  6
BYBLOCK
 62
     0
100
AcDbBlockReference
  2
_OPEN
 10
227.140781
 20
39.265444
 30
0.0
 41
15.0
 42
15.0
 43
15.0
 50
195.708687
  0
POINT
  5
16CE
100
AcDbEntity
  8
DEFPOINTS
  6
BYBLOCK
 62
     0
100
AcDbPoint
 10
227.140781
 20
39.265444
 30
0.0
  0
POINT
  5
16CF
100
AcDbEntity
  8
DEFPOINTS
  6
BYBLOCK
 62
     0
100
AcDbPoint
 10
94.021831
 20
1.825615
 30
0.0
  0
ENDBLK
  5
16D0
100
AcDbEntity
  8
0
100
AcDbBlockEnd
  0
BLOCK
  5
16D3
100
AcDbEntity
  8
0
100
AcDbBlockBegin
  2
*D37
 70
     1
 10
0.0
 20
0.0
 30
0.0
  3
*D37
  1

  0
LINE
  5
16D4
100
AcDbEntity
  8
0
  6
BYBLOCK
 62
     0
100
AcDbLine
 10
270.713905
 20
-29.364968
 30
0.0
 11
231.170827
 21
-11.444618
 31
0.0
  0
LINE
  5
16D5
100
AcDbEntity
  8
0
  6
BYBLOCK
 62
     0
100
AcDbLine
 10
89.991785
 20
52.535676
 30
0.0
 11
76.329297
 21
58.727318
 31
0.0
  0
MTEXT
  5
16D6
100
AcDbEntity
  8
0
  6
BYBLOCK
 62
     0
100
AcDbMText
 10
260.457061
 20
-17.579306
 30
0.0
 40
10.0
 41
0.0
 71
     5
 72
     1
  1
\A1;\U+2205125
  7
ED10
 11
0.910833
 21
-0.412776
 31
0.0
  0
LINE
  5
16D7
100
AcDbEntity
  8
0
  6
BYBLOCK
 62
     0
100
AcDbLine
 10
103.654273
 20
46.344035
 30
0.0
 11
217.508339
 21
-5.252977
 31
0.0
  0
INSERT
  5
16D8
100
AcDbEntity
  8
0
  6
BYBLOCK
 62
     0
100
AcDbBlockReference
  2
_OPEN
 10
103.654273
 20
46.344035
 30
0.0
 41
15.0
 42
15.0
 43
15.0
 50
335.620656
  0
INSERT
  5
16D9
100
AcDbEntity
  8
0
  6
BYBLOCK
 62
     0
100
AcDbBlockReference
  2
_OPEN
 10
217.508339
 20
-5.252977
 30
0.0
 41
15.0
 42
15.0
 43
15.0
 50
155.620656
  0
POINT
  5
16DA
100
AcDbEntity
  8
DEFPOINTS
  6
BYBLOCK
 62
     0
100
AcDbPoint
 10
217.508339
 20
-5.252977
 30
0.0
  0
POINT
  5
16DB
100
AcDbEntity
  8
DEFPOINTS
  6
BYBLOCK
 62
     0
100
AcDbPoint
 10
103.654273
 20
46.344035
 30
0.0
  0
ENDBLK
  5
16DC
100
AcDbEntity
  8
0
100
AcDbBlockEnd
  0
BLOCK
  5
16DF
100
AcDbEntity
  8
0
100
AcDbBlockBegin
  2
*D38
 70
     1
 10
0.0
 20
0.0
 30
0.0
  3
*D38
  1

  0
LINE
  5
16E0
100
AcDbEntity
  8
0
  6
BYBLOCK
 62
     0
100
AcDbLine
 10
286.457162
 20
2.647896
 30
0.0
 11
243.885336
 21
8.700962
 31
0.0
  0
LINE
  5
16E1
100
AcDbEntity
  8
0
  6
BYBLOCK
 62
     0
100
AcDbLine
 10
77.277276
 20
32.390096
 30
0.0
 11
62.426639
 21
34.501631
 31
0.0
  0
MTEXT
  5
16E2
100
AcDbEntity
  8
0
  6
BYBLOCK
 62
     0
100
AcDbMText
 10
273.511566
 20
11.053938
 30
0.0
 40
10.0
 41
0.0
 71
     5
 72
     1
  1
\A1;\U+2205138
  7
ED10
 11
0.990042
 21
-0.140769
 31
0.0
  0
LINE
  5
16E3
100
AcDbEntity
  8
0
  6
BYBLOCK
 62
     0
100
AcDbLine
 10
92.127913
 20
30.278561
 30
0.0
 11
229.034699
 21
10.812497
 31
0.0
  0
INSERT
  5
16E4
100
AcDbEntity
  8
0
  6
BYBLOCK
 62
     0
100
AcDbBlockReference
  2
_OPEN
 10
92.127913
 20
30.278561
 30
0.0
 41
15.0
 42
15.0
 43
15.0
 50
351.907653
  0
INSERT
  5
16E5
100
AcDbEntity
  8
0
  6
BYBLOCK
 62
     0
100
AcDbBlockReference
  2
_OPEN
 10
229.034699
 20
10.812497
 30
0.0
 41
15.0
 42
15.0
 43
15.0
 50
171.907653
  0
POINT
  5
16E6
100
AcDbEntity
  8
DEFPOINTS
  6
BYBLOCK
 62
     0
100
AcDbPoint
 10
229.034699
 20
10.812497
 30
0.0
  0
POINT
  5
16E7
100
AcDbEntity
  8
DEFPOINTS
  6
BYBLOCK
 62
     0
100
AcDbPoint
 10
92.127913
 20
30.278561
 30
0.0
  0
ENDBLK
  5
16E8
100
AcDbEntity
  8
0
100
AcDbBlockEnd
  0
BLOCK
  5
16EB
100
AcDbEntity
  8
0
100
AcDbBlockBegin
  2
*D39
 70
     1
 10
0.0
 20
0.0
 30
0.0
  3
*D39
  1

  0
LINE
  5
16EC
100
AcDbEntity
  8
0
  6
BYBLOCK
 62
     0
100
AcDbLine
 10
254.874326
 20
-64.741532
 30
0.0
 11
222.983968
 21
-35.897034
 31
0.0
  0
LINE
  5
16ED
100
AcDbEntity
  8
0
  6
BYBLOCK
 62
     0
100
AcDbLine
 10
98.178644
 20
76.988092
 30
0.0
 11
87.0541
 21
87.050126
 31
0.0
  0
MTEXT
  5
16EE
100
AcDbEntity
  8
0
  6
BYBLOCK
 62
     0
100
AcDbMText
 10
248.851634
 20
-50.529665
 30
0.0
 40
10.0
 41
0.0
 71
     5
 72
     1
  1
\A1;\U+2205138
  7
ED10
 11
0.741636
 21
-0.670802
 31
0.0
  0
LINE
  5
16EF
100
AcDbEntity
  8
0
  6
BYBLOCK
 62
     0
100
AcDbLine
 10
109.303187
 20
66.926057
 30
0.0
 11
211.859425
 21
-25.834999
 31
0.0
  0
INSERT
  5
16F0
100
AcDbEntity
  8
0
  6
BYBLOCK
 62
     0
100
AcDbBlockReference
  2
_OPEN
 10
109.303187
 20
66.926057
 30
0.0
 41
15.0
 42
15.0
 43
15.0
 50
317.870984
  0
INSERT
  5
16F1
100
AcDbEntity
  8
0
  6
BYBLOCK
 62
     0
100
AcDbBlockReference
  2
_OPEN
 10
211.859425
 20
-25.834999
 30
0.0
 41
15.0
 42
15.0
 43
15.0
 50
137.870984
  0
POINT
  5
16F2
100
AcDbEntity
  8
DEFPOINTS
  6
BYBLOCK
 62
     0
100
AcDbPoint
 10
211.859425
 20
-25.834999
 30
0.0
  0
POINT
  5
16F3
100
AcDbEntity
  8
DEFPOINTS
  6
BYBLOCK
 62
     0
100
AcDbPoint
 10
109.303187
 20
66.926057
 30
0.0
  0
ENDBLK
  5
16F4
100
AcDbEntity
  8
0
100
AcDbBlockEnd
  0
BLOCK
  5
171E
100
AcDbEntity
  8
0
100
AcDbBlockBegin
  2
*D40
 70
     1
 10
0.0
 20
0.0
 30
0.0
  3
*D40
  1

  0
LINE
  5
171F
100
AcDbEntity
  8
0
  6
BYBLOCK
 62
     0
100
AcDbLine
 10
301.921924
 20
56.97762
 30
0.0
 11
259.314594
 21
45.995114
 31
0.0
  0
LINE
  5
1720
100
AcDbEntity
  8
0
  6
BYBLOCK
 62
     0
100
AcDbLine
 10
61.848018
 20
-4.904056
 30
0.0
 11
47.322792
 21
-8.648092
 31
0.0
  0
MTEXT
  5
1721
100
AcDbEntity
  8
0
  6
BYBLOCK
 62
     0
100
AcDbMText
 10
286.258457
 20
59.652649
 30
0.0
 40
10.0
 41
0.0
 71
     5
 72
     1
  1
\A1;\U+2205174
  7
ED10
 11
0.968348
 21
0.249602
 31
0.0
  0
LINE
  5
1722
100
AcDbEntity
  8
0
  6
BYBLOCK
 62
     0
100
AcDbLine
 10
76.373244
 20
-1.16002
 30
0.0
 11
244.789368
 21
42.251078
 31
0.0
  0
INSERT
  5
1723
100
AcDbEntity
  8
0
  6
BYBLOCK
 62
     0
100
AcDbBlockReference
  2
_OPEN
 10
76.373244
 20
-1.16002
 30
0.0
 41
15.0
 42
15.0
 43
15.0
 50
14.453985
  0
INSERT
  5
1724
100
AcDbEntity
  8
0
  6
BYBLOCK
 62
     0
100
AcDbBlockReference
  2
_OPEN
 10
244.789368
 20
42.251078
 30
0.0
 41
15.0
 42
15.0
 43
15.0
 50
194.453985
  0
POINT
  5
1725
100
AcDbEntity
  8
DEFPOINTS
  6
BYBLOCK
 62
     0
100
AcDbPoint
 10
244.789368
 20
42.251078
 30
0.0
  0
POINT
  5
1726
100
AcDbEntity
  8
DEFPOINTS
  6
BYBLOCK
 62
     0
100
AcDbPoint
 10
76.373244
 20
-1.16002
 30
0.0
  0
ENDBLK
  5
1727
100
AcDbEntity
  8
0
100
AcDbBlockEnd
  0
BLOCK
  5
172A
100
AcDbEntity
  8
0
100
AcDbBlockBegin
  2
*D41
 70
     1
 10
0.0
 20
0.0
 30
0.0
  3
*D41
  1

  0
LINE
  5
172B
100
AcDbEntity
  8
0
  6
BYBLOCK
 62
     0
100
AcDbLine
 10
301.916111
 20
17.876745
 30
0.0
 11
260.923419
 21
18.650798
 31
0.0
  0
LINE
  5
172C
100
AcDbEntity
  8
0
  6
BYBLOCK
 62
     0
100
AcDbLine
 10
60.239193
 20
22.44026
 30
0.0
 11
45.241867
 21
22.72345
 31
0.0
  0
MTEXT
  5
172D
100
AcDbEntity
  8
0
  6
BYBLOCK
 62
     0
100
AcDbMText
 10
289.041144
 20
24.621018
 30
0.0
 40
10.0
 41
0.0
 71
     5
 72
     1
  1
\A1;\U+2205171
  7
ED10
 11
0.999822
 21
-0.018879
 31
0.0
  0
LINE
  5
172E
100
AcDbEntity
  8
0
  6
BYBLOCK
 62
     0
100
AcDbLine
 10
75.23652
 20
22.15707
 30
0.0
 11
245.926092
 21
18.933988
 31
0.0
  0
INSERT
  5
172F
100
AcDbEntity
  8
0
  6
BYBLOCK
 62
     0
100
AcDbBlockReference
  2
_OPEN
 10
75.23652
 20
22.15707
 30
0.0
 41
15.0
 42
15.0
 43
15.0
 50
358.918229
  0
INSERT
  5
1730
100
AcDbEntity
  8
0
  6
BYBLOCK
 62
     0
100
AcDbBlockReference
  2
_OPEN
 10
245.926092
 20
18.933988
 30
0.0
 41
15.0
 42
15.0
 43
15.0
 50
178.918229
  0
POINT
  5
1731
100
AcDbEntity
  8
DEFPOINTS
  6
BYBLOCK
 62
     0
100
AcDbPoint
 10
245.926092
 20
18.933988
 30
0.0
  0
POINT
  5
1732
100
AcDbEntity
  8
DEFPOINTS
  6
BYBLOCK
 62
     0
100
AcDbPoint
 10
75.23652
 20
22.15707
 30
0.0
  0
ENDBLK
  5
1733
100
AcDbEntity
  8
0
100
AcDbBlockEnd
  0
BLOCK
  5
1736
100
AcDbEntity
  8
0
100
AcDbBlockBegin
  2
*D42
 70
     1
 10
0.0
 20
0.0
 30
0.0
  3
*D42
  1

  0
LINE
  5
1737
100
AcDbEntity
  8
0
  6
BYBLOCK
 62
     0
100
AcDbLine
 10
280.166218
 20
-48.393017
 30
0.0
 11
242.906305
 21
-26.913349
 31
0.0
  0
LINE
  5
1738
100
AcDbEntity
  8
0
  6
BYBLOCK
 62
     0
100
AcDbLine
 10
78.256307
 20
68.004407
 30
0.0
 11
65.261042
 21
75.495943
 31
0.0
  0
MTEXT
  5
1739
100
AcDbEntity
  8
0
  6
BYBLOCK
 62
     0
100
AcDbMText
 10
271.280226
 20
-35.76767
 30
0.0
 40
10.0
 41
0.0
 71
     5
 72
     1
  1
\A1;\U+2205160
  7
ED10
 11
0.866351
 21
-0.499436
 31
0.0
  0
LINE
  5
173A
100
AcDbEntity
  8
0
  6
BYBLOCK
 62
     0
100
AcDbLine
 10
91.251571
 20
60.512872
 30
0.0
 11
229.911041
 21
-19.421813
 31
0.0
  0
INSERT
  5
173B
100
AcDbEntity
  8
0
  6
BYBLOCK
 62
     0
100
AcDbBlockReference
  2
_OPEN
 10
91.251571
 20
60.512872
 30
0.0
 41
15.0
 42
15.0
 43
15.0
 50
330.037326
  0
INSERT
  5
173C
100
AcDbEntity
  8
0
  6
BYBLOCK
 62
     0
100
AcDbBlockReference
  2
_OPEN
 10
229.911041
 20
-19.421813
 30
0.0
 41
15.0
 42
15.0
 43
15.0
 50
150.037326
  0
POINT
  5
173D
100
AcDbEntity
  8
DEFPOINTS
  6
BYBLOCK
 62
     0
100
AcDbPoint
 10
229.911041
 20
-19.421813
 30
0.0
  0
POINT
  5
173E
100
AcDbEntity
  8
DEFPOINTS
  6
BYBLOCK
 62
     0
100
AcDbPoint
 10
91.251571
 20
60.512872
 30
0.0
  0
ENDBLK
  5
173F
100
AcDbEntity
  8
0
100
AcDbBlockEnd
  0
ENDSEC
  0
SECTION
  2
ENTITIES
  0
LINE
  5
1129
100
AcDbEntity
  8
V0-VYPLNE
  6
DASHDOT
100
AcDbLine
 10
180.127304
 20
20.545529
 30
0.0
 11
180.127304
 21
-46.728381
 31
0.0
  0
LINE
  5
1187
100
AcDbEntity
  8
V0-VYPLNE
100
AcDbLine
 10
180.127304
 20
20.545529
 30
0.0
 11
180.127304
 21
85.698618
 31
0.0
  0
LINE
  5
12BF
100
AcDbEntity
  8
V0-VYPLNE
100
AcDbLine
 10
110.062311
 20
20.545529
 30
0.0
 11
250.724879
 21
20.545529
 31
0.0
  0
LINE
  5
1328
100
AcDbEntity
  8
V0-OBRYS
100
AcDbLine
 10
37.506386
 20
-274.577305
 30
0.0
 11
-21.993614
 21
-274.577305
 31
0.0
  0
LINE
  5
1329
100
AcDbEntity
  8
V0-OBRYS
100
AcDbLine
 10
37.506386
 20
-126.577305
 30
0.0
 11
-21.993614
 21
-126.577305
 31
0.0
  0
LINE
  5
132A
100
AcDbEntity
  8
V0-OBRYS
100
AcDbLine
 10
37.506386
 20
-274.577305
 30
0.0
 11
37.506386
 21
-126.577305
 31
0.0
  0
LINE
  5
132B
100
AcDbEntity
  8
V0-OBRYS
100
AcDbLine
 10
-21.993614
 20
-126.577305
 30
0.0
 11
-21.993614
 21
-274.577305
 31
0.0
  0
LINE
  5
1335
100
AcDbEntity
  8
V0-VYPLNE
100
AcDbLine
 10
54.777424
 20
-200.577305
 30
0.0
 11
-33.157598
 21
-200.577305
 31
0.0
  0
POINT
  5
1344
100
AcDbEntity
  8
V0-VYPLNE
 62
    41
100
AcDbPoint
 10
180.127304
 20
20.545529
 30
0.0
  0
POINT
  5
1346
100
AcDbEntity
  8
V0-VYPLNE
 62
    41
100
AcDbPoint
 10
10.174215
 20
-200.577305
 30
0.0
  0
TEXT
  5
1347
100
AcDbEntity
  8
V0-VYPLNE
 62
     6
100
AcDbText
 10
144.431772
 20
-151.130203
 30
0.0
 40
20.0
  1
VBM-160
  7
ED20
100
AcDbText
  0
TEXT
  5
1348
100
AcDbEntity
  8
V0-VYPLNE
 62
     4
100
AcDbText
 10
122.848307
 20
-180.075905
 30
0.0
 40
10.0
  1
RYCHLOUPINACI SPONA
  7
ED10
100
AcDbText
  0
TEXT
  5
1349
100
AcDbEntity
  8
V0-VYPLNE
 62
    51
100
AcDbText
 10
122.297115
 20
-206.686685
 30
0.0
 40
10.0
  1
PRO KRUHOVE POTRUBI
  7
ED10
100
AcDbText
  0
TEXT
  5
134D
100
AcDbEntity
  8
V0-VYPLNE
 62
     6
100
AcDbText
 10
153.602319
 20
143.056405
 30
0.0
 40
10.67
  1
VBM-160
  7
ED10
100
AcDbText
  0
LINE
  5
13B2
100
AcDbEntity
  8
V0-VYPLNE
  6
CONTINUOUS
 62
    41
100
AcDbLine
 10
-7.537252
 20
-200.577305
 30
0.0
 11
-27.03245
 21
-200.577305
 31
0.0
  0
POINT
  5
13C0
100
AcDbEntity
  8
V0-VYPLNE
 62
    41
100
AcDbPoint
 10
9.791393
 20
20.413236
 30
0.0
  0
LINE
  5
13C3
100
AcDbEntity
  8
V0-OBRYS
100
AcDbLine
 10
-21.993614
 20
-65.954471
 30
0.0
 11
-21.993614
 21
127.045529
 31
0.0
  0
LINE
  5
13C4
100
AcDbEntity
  8
V0-OBRYS
100
AcDbLine
 10
37.506386
 20
127.045529
 30
0.0
 11
37.506386
 21
116.847488
 31
0.0
  0
LINE
  5
13C7
100
AcDbEntity
  8
V0-OBRYS
100
AcDbLine
 10
37.506386
 20
-65.954471
 30
0.0
 11
-21.993614
 21
-65.954471
 31
0.0
  0
LINE
  5
13CB
100
AcDbEntity
  8
V0-VYPLNE
100
AcDbLine
 10
46.552743
 20
20.545529
 30
0.0
 11
-26.853711
 21
20.545529
 31
0.0
  0
LINE
  5
13CC
100
AcDbEntity
  8
V0-OBRYS
100
AcDbLine
 10
37.506386
 20
107.045529
 30
0.0
 11
-21.993614
 21
107.045529
 31
0.0
  0
TEXT
  5
1423
100
AcDbEntity
  8
V0-VYPLNE
 62
     6
100
AcDbText
 10
-18.713264
 20
149.575166
 30
0.0
 40
10.0
  1
VBM-160
  7
ED10
100
AcDbText
  0
TEXT
  5
1424
100
AcDbEntity
  8
V0-VYPLNE
 62
     6
100
AcDbText
 10
-19.111951
 20
-301.21072
 30
0.0
 40
10.0
  1
VBM-160
  7
ED10
100
AcDbText
  0
LINE
  5
14CB
100
AcDbEntity
  8
V0-OBRYS
  6
CONTINUOUS
100
AcDbLine
 10
190.281827
 20
127.253878
 30
0.0
 11
190.281827
 21
107.920858
 31
0.0
  0
LINE
  5
14CC
100
AcDbEntity
  8
V0-OBRYS
  6
CONTINUOUS
100
AcDbLine
 10
191.754473
 20
127.212397
 30
0.0
 11
191.754473
 21
109.308908
 31
0.0
  0
LINE
  5
14CE
100
AcDbEntity
  8
V0-OBRYS
  6
CONTINUOUS
100
AcDbLine
 10
170.862427
 20
127.253878
 30
0.0
 11
170.862427
 21
108.050171
 31
0.0
  0
LINE
  5
14CF
100
AcDbEntity
  8
V0-OBRYS
  6
CONTINUOUS
100
AcDbLine
 10
169.389781
 20
127.212397
 30
0.0
 11
169.389781
 21
109.45094
 31
0.0
  0
LINE
  5
14D0
100
AcDbEntity
  8
V0-OBRYS
  6
CONTINUOUS
100
AcDbLine
 10
169.389781
 20
127.212397
 30
0.0
 11
170.862427
 21
127.253878
 31
0.0
  0
LINE
  5
14D1
100
AcDbEntity
  8
V0-OBRYS
  6
CONTINUOUS
100
AcDbLine
 10
190.281827
 20
127.253878
 30
0.0
 11
191.754473
 21
127.212397
 31
0.0
  0
LINE
  5
14D3
100
AcDbEntity
  8
V0-OBRYS
  6
CONTINUOUS
100
AcDbLine
 10
170.862427
 20
117.341862
 30
0.0
 11
170.862427
 21
119.769287
 31
0.0
  0
LINE
  5
14D4
100
AcDbEntity
  8
V0-OBRYS
  6
CONTINUOUS
100
AcDbLine
 10
170.862427
 20
119.769287
 30
0.0
 11
190.281827
 21
119.769287
 31
0.0
  0
LINE
  5
14D5
100
AcDbEntity
  8
V0-OBRYS
  6
CONTINUOUS
100
AcDbLine
 10
169.478401
 20
121.533915
 30
0.0
 11
165.364597
 21
121.533915
 31
0.0
  0
LINE
  5
14D6
100
AcDbEntity
  8
V0-OBRYS
  6
CONTINUOUS
100
AcDbLine
 10
165.364597
 20
121.533915
 30
0.0
 11
165.364597
 21
117.89075
 31
0.0
  0
LINE
  5
14D7
100
AcDbEntity
  8
V0-OBRYS
  6
CONTINUOUS
100
AcDbLine
 10
170.862427
 20
114.914437
 30
0.0
 11
190.281827
 21
114.914437
 31
0.0
  0
LINE
  5
14D8
100
AcDbEntity
  8
V0-OBRYS
  6
CONTINUOUS
100
AcDbLine
 10
169.478401
 20
113.149808
 30
0.0
 11
165.364597
 21
113.149808
 31
0.0
  0
LINE
  5
14DB
100
AcDbEntity
  8
V0-OBRYS
  6
CONTINUOUS
100
AcDbLine
 10
195.324505
 20
121.533915
 30
0.0
 11
195.324505
 21
113.149808
 31
0.0
  0
LINE
  5
14DC
100
AcDbEntity
  8
V0-OBRYS
  6
CONTINUOUS
100
AcDbLine
 10
191.665853
 20
113.149808
 30
0.0
 11
195.324505
 21
113.149808
 31
0.0
  0
LINE
  5
14DD
100
AcDbEntity
  8
V0-OBRYS
  6
CONTINUOUS
100
AcDbLine
 10
191.754473
 20
121.533915
 30
0.0
 11
195.324505
 21
121.533915
 31
0.0
  0
LINE
  5
14DF
100
AcDbEntity
  8
V0-OBRYS
  6
CONTINUOUS
100
AcDbLine
 10
195.324505
 20
119.769287
 30
0.0
 11
210.266269
 21
119.769287
 31
0.0
  0
LINE
  5
14E0
100
AcDbEntity
  8
V0-OBRYS
  6
CONTINUOUS
100
AcDbLine
 10
195.324505
 20
114.914437
 30
0.0
 11
210.266269
 21
114.914437
 31
0.0
  0
LINE
  5
1504
100
AcDbEntity
  8
V0-OBRYS
  6
CONTINUOUS
100
AcDbLine
 10
37.506386
 20
127.045529
 30
0.0
 11
-21.993614
 21
127.045529
 31
0.0
  0
LINE
  5
1505
100
AcDbEntity
  8
V0-ZBYTEK
  6
DASHDOT
100
AcDbLine
 10
197.004273
 20
117.341862
 30
0.0
 11
157.153687
 21
117.341862
 31
0.0
  0
LINE
  5
1533
100
AcDbEntity
  8
V0-ZBYTEK
  6
DASHDOT
100
AcDbLine
 10
-8.258969
 20
133.339356
 30
0.0
 11
-8.258969
 21
103.0751
 31
0.0
  0
LINE
  5
1534
100
AcDbEntity
  8
V0-ZBYTEK
  6
DASHDOT
100
AcDbLine
 10
23.771741
 20
133.339356
 30
0.0
 11
23.771741
 21
102.309967
 31
0.0
  0
LINE
  5
1545
100
AcDbEntity
  8
V0-OBRYS
100
AcDbLine
 10
-21.993614
 20
-190.577305
 30
0.0
 11
37.506386
 21
-190.577305
 31
0.0
  0
LINE
  5
1547
100
AcDbEntity
  8
V0-OBRYS
100
AcDbLine
 10
-21.993614
 20
-188.577305
 30
0.0
 11
37.506386
 21
-188.577305
 31
0.0
  0
LINE
  5
1548
100
AcDbEntity
  8
V0-OBRYS
100
AcDbLine
 10
-8.258969
 20
-190.577305
 30
0.0
 11
-10.758969
 21
-190.577305
 31
0.0
  0
LINE
  5
1549
100
AcDbEntity
  8
V0-OBRYS
100
AcDbLine
 10
-10.758969
 20
-190.577305
 30
0.0
 11
-10.758969
 21
-200.577305
 31
0.0
  0
LINE
  5
154A
100
AcDbEntity
  8
V0-OBRYS
100
AcDbLine
 10
-12.710905
 20
-188.533271
 30
0.0
 11
-12.710905
 21
-185.045623
 31
0.0
  0
LINE
  5
154B
100
AcDbEntity
  8
V0-OBRYS
100
AcDbLine
 10
-12.710905
 20
-185.045623
 30
0.0
 11
-8.883249
 21
-185.045623
 31
0.0
  0
LINE
  5
1550
100
AcDbEntity
  8
V0-OBRYS
100
AcDbLine
 10
-5.758969
 20
-190.577305
 30
0.0
 11
-5.758969
 21
-200.577305
 31
0.0
  0
LINE
  5
1551
100
AcDbEntity
  8
V0-OBRYS
100
AcDbLine
 10
-8.258969
 20
-190.577305
 30
0.0
 11
-5.758969
 21
-190.577305
 31
0.0
  0
LINE
  5
1552
100
AcDbEntity
  8
V0-OBRYS
100
AcDbLine
 10
-3.807033
 20
-185.045623
 30
0.0
 11
-7.699787
 21
-185.045623
 31
0.0
  0
LINE
  5
1553
100
AcDbEntity
  8
V0-OBRYS
100
AcDbLine
 10
-3.807033
 20
-188.533271
 30
0.0
 11
-3.807033
 21
-185.045623
 31
0.0
  0
LINE
  5
1554
100
AcDbEntity
  8
V0-OBRYS
100
AcDbLine
 10
-21.993614
 20
-212.577305
 30
0.0
 11
37.506386
 21
-212.577305
 31
0.0
  0
LINE
  5
1555
100
AcDbEntity
  8
V0-OBRYS
100
AcDbLine
 10
-21.993614
 20
-210.577305
 30
0.0
 11
37.506386
 21
-210.577305
 31
0.0
  0
LINE
  5
1557
100
AcDbEntity
  8
V0-OBRYS
100
AcDbLine
 10
-21.993614
 20
-200.577305
 30
0.0
 11
-21.993614
 21
-210.577305
 31
0.0
  0
LINE
  5
1558
100
AcDbEntity
  8
V0-OBRYS
100
AcDbLine
 10
-8.258969
 20
-210.577305
 30
0.0
 11
-5.758969
 21
-210.577305
 31
0.0
  0
LINE
  5
1559
100
AcDbEntity
  8
V0-OBRYS
100
AcDbLine
 10
-10.758969
 20
-231.630637
 30
0.0
 11
-10.758969
 21
-216.108988
 31
0.0
  0
LINE
  5
155A
100
AcDbEntity
  8
V0-OBRYS
100
AcDbLine
 10
-8.258969
 20
-210.577305
 30
0.0
 11
-10.758969
 21
-210.577305
 31
0.0
  0
LINE
  5
155B
100
AcDbEntity
  8
V0-OBRYS
100
AcDbLine
 10
-5.758969
 20
-231.630637
 30
0.0
 11
-5.758969
 21
-216.108988
 31
0.0
  0
LINE
  5
155C
100
AcDbEntity
  8
V0-OBRYS
100
AcDbLine
 10
-3.807033
 20
-216.108988
 30
0.0
 11
-8.294145
 21
-216.108988
 31
0.0
  0
LINE
  5
155D
100
AcDbEntity
  8
V0-OBRYS
100
AcDbLine
 10
-12.710905
 20
-216.108988
 30
0.0
 11
-8.223793
 21
-216.108988
 31
0.0
  0
LINE
  5
155E
100
AcDbEntity
  8
V0-OBRYS
100
AcDbLine
 10
-12.710905
 20
-212.621339
 30
0.0
 11
-12.710905
 21
-216.108988
 31
0.0
  0
LINE
  5
155F
100
AcDbEntity
  8
V0-OBRYS
100
AcDbLine
 10
-3.807033
 20
-212.621339
 30
0.0
 11
-3.807033
 21
-216.108988
 31
0.0
  0
LINE
  5
1562
100
AcDbEntity
  8
V0-OBRYS
100
AcDbLine
 10
-10.758969
 20
-231.630637
 30
0.0
 11
-5.758969
 21
-231.630637
 31
0.0
  0
LINE
  5
1563
100
AcDbEntity
  8
V0-OBRYS
100
AcDbLine
 10
-10.758969
 20
-210.577305
 30
0.0
 11
-10.758969
 21
-200.577305
 31
0.0
  0
LINE
  5
1564
100
AcDbEntity
  8
V0-OBRYS
100
AcDbLine
 10
-5.758969
 20
-210.577305
 30
0.0
 11
-5.758969
 21
-200.577305
 31
0.0
  0
LINE
  5
1565
100
AcDbEntity
  8
V0-OBRYS
100
AcDbLine
 10
-8.883249
 20
-185.045623
 30
0.0
 11
-8.883249
 21
-187.038565
 31
0.0
  0
LINE
  5
1566
100
AcDbEntity
  8
V0-OBRYS
100
AcDbLine
 10
-8.883249
 20
-187.038565
 30
0.0
 11
-7.699787
 21
-187.038565
 31
0.0
  0
LINE
  5
1567
100
AcDbEntity
  8
V0-OBRYS
100
AcDbLine
 10
-7.699787
 20
-187.038565
 30
0.0
 11
-7.699787
 21
-185.045623
 31
0.0
  0
LINE
  5
1568
100
AcDbEntity
  8
V0-OBRYS
100
AcDbLine
 10
21.271741
 20
-231.630637
 30
0.0
 11
21.271741
 21
-216.108988
 31
0.0
  0
LINE
  5
1569
100
AcDbEntity
  8
V0-OBRYS
100
AcDbLine
 10
26.271741
 20
-231.630637
 30
0.0
 11
26.271741
 21
-216.108988
 31
0.0
  0
LINE
  5
156A
100
AcDbEntity
  8
V0-OBRYS
100
AcDbLine
 10
26.271741
 20
-231.630637
 30
0.0
 11
21.271741
 21
-231.630637
 31
0.0
  0
LINE
  5
156B
100
AcDbEntity
  8
V0-OBRYS
100
AcDbLine
 10
19.319805
 20
-216.108988
 30
0.0
 11
23.806918
 21
-216.108988
 31
0.0
  0
LINE
  5
156C
100
AcDbEntity
  8
V0-OBRYS
100
AcDbLine
 10
28.223677
 20
-212.621339
 30
0.0
 11
28.223677
 21
-216.108988
 31
0.0
  0
LINE
  5
156D
100
AcDbEntity
  8
V0-OBRYS
100
AcDbLine
 10
28.223677
 20
-216.108988
 30
0.0
 11
23.736565
 21
-216.108988
 31
0.0
  0
LINE
  5
156E
100
AcDbEntity
  8
V0-OBRYS
100
AcDbLine
 10
19.319805
 20
-212.621339
 30
0.0
 11
19.319805
 21
-216.108988
 31
0.0
  0
LINE
  5
156F
100
AcDbEntity
  8
V0-OBRYS
100
AcDbLine
 10
21.271741
 20
-210.577305
 30
0.0
 11
21.271741
 21
-200.577305
 31
0.0
  0
LINE
  5
1570
100
AcDbEntity
  8
V0-OBRYS
100
AcDbLine
 10
26.271741
 20
-210.577305
 30
0.0
 11
26.271741
 21
-200.577305
 31
0.0
  0
LINE
  5
1571
100
AcDbEntity
  8
V0-OBRYS
100
AcDbLine
 10
23.771741
 20
-210.577305
 30
0.0
 11
21.271741
 21
-210.577305
 31
0.0
  0
LINE
  5
1572
100
AcDbEntity
  8
V0-OBRYS
100
AcDbLine
 10
23.771741
 20
-210.577305
 30
0.0
 11
26.271741
 21
-210.577305
 31
0.0
  0
LINE
  5
1573
100
AcDbEntity
  8
V0-OBRYS
100
AcDbLine
 10
23.771741
 20
-190.577305
 30
0.0
 11
21.271741
 21
-190.577305
 31
0.0
  0
LINE
  5
1574
100
AcDbEntity
  8
V0-OBRYS
100
AcDbLine
 10
26.271741
 20
-190.577305
 30
0.0
 11
26.271741
 21
-200.577305
 31
0.0
  0
LINE
  5
1575
100
AcDbEntity
  8
V0-OBRYS
100
AcDbLine
 10
23.771741
 20
-190.577305
 30
0.0
 11
26.271741
 21
-190.577305
 31
0.0
  0
LINE
  5
1576
100
AcDbEntity
  8
V0-OBRYS
100
AcDbLine
 10
21.271741
 20
-190.577305
 30
0.0
 11
21.271741
 21
-200.577305
 31
0.0
  0
LINE
  5
1577
100
AcDbEntity
  8
V0-OBRYS
100
AcDbLine
 10
19.319805
 20
-185.045623
 30
0.0
 11
23.212559
 21
-185.045623
 31
0.0
  0
LINE
  5
1578
100
AcDbEntity
  8
V0-OBRYS
100
AcDbLine
 10
23.212559
 20
-187.038565
 30
0.0
 11
23.212559
 21
-185.045623
 31
0.0
  0
LINE
  5
1579
100
AcDbEntity
  8
V0-OBRYS
100
AcDbLine
 10
24.396022
 20
-187.038565
 30
0.0
 11
23.212559
 21
-187.038565
 31
0.0
  0
LINE
  5
157A
100
AcDbEntity
  8
V0-OBRYS
100
AcDbLine
 10
24.396022
 20
-185.045623
 30
0.0
 11
24.396022
 21
-187.038565
 31
0.0
  0
LINE
  5
157B
100
AcDbEntity
  8
V0-OBRYS
100
AcDbLine
 10
28.223677
 20
-185.045623
 30
0.0
 11
24.396022
 21
-185.045623
 31
0.0
  0
LINE
  5
157C
100
AcDbEntity
  8
V0-OBRYS
100
AcDbLine
 10
28.223677
 20
-188.533271
 30
0.0
 11
28.223677
 21
-185.045623
 31
0.0
  0
LINE
  5
157D
100
AcDbEntity
  8
V0-OBRYS
100
AcDbLine
 10
19.319805
 20
-188.533271
 30
0.0
 11
19.319805
 21
-185.045623
 31
0.0
  0
CIRCLE
  5
157E
100
AcDbEntity
  8
V0-OBRYS
100
AcDbCircle
 10
-8.258969
 20
115.837164
 30
0.0
 40
2.5
  0
CIRCLE
  5
157F
100
AcDbEntity
  8
V0-OBRYS
100
AcDbCircle
 10
-8.258969
 20
115.837164
 30
0.0
 40
5.0
  0
CIRCLE
  5
1580
100
AcDbEntity
  8
V0-OBRYS
100
AcDbCircle
 10
23.771741
 20
115.837164
 30
0.0
 40
5.0
  0
CIRCLE
  5
1581
100
AcDbEntity
  8
V0-OBRYS
100
AcDbCircle
 10
23.771741
 20
115.837164
 30
0.0
 40
2.5
  0
LINE
  5
1582
100
AcDbEntity
  8
V0-OBRYS
100
AcDbLine
 10
210.266269
 20
119.769287
 30
0.0
 11
210.266269
 21
114.914437
 31
0.0
  0
LINE
  5
1584
100
AcDbEntity
  8
V0-OBRYS
100
AcDbLine
 10
165.364597
 20
117.89075
 30
0.0
 11
167.937024
 21
117.89075
 31
0.0
  0
LINE
  5
1585
100
AcDbEntity
  8
V0-OBRYS
100
AcDbLine
 10
167.937024
 20
117.89075
 30
0.0
 11
167.937024
 21
116.639913
 31
0.0
  0
LINE
  5
1586
100
AcDbEntity
  8
V0-OBRYS
100
AcDbLine
 10
167.937024
 20
116.639913
 30
0.0
 11
165.364597
 21
116.639913
 31
0.0
  0
LINE
  5
1587
100
AcDbEntity
  8
V0-OBRYS
  6
CONTINUOUS
100
AcDbLine
 10
165.364597
 20
116.639913
 30
0.0
 11
165.364597
 21
113.149808
 31
0.0
  0
LINE
  5
1588
100
AcDbEntity
  8
V0-ZBYTEK
  6
DASHDOT
100
AcDbLine
 10
40.75727
 20
115.837164
 30
0.0
 11
-23.791137
 21
115.837164
 31
0.0
  0
LINE
  5
1589
100
AcDbEntity
  8
V0-ZBYTEK
  6
DASHDOT
100
AcDbLine
 10
23.771741
 20
-179.418695
 30
0.0
 11
23.771741
 21
-235.273382
 31
0.0
  0
LINE
  5
158A
100
AcDbEntity
  8
V0-ZBYTEK
  6
DASHDOT
100
AcDbLine
 10
-8.258969
 20
-177.123296
 30
0.0
 11
-8.258969
 21
-236.803648
 31
0.0
  0
LINE
  5
158B
100
AcDbEntity
  8
V0-OBRYS
100
AcDbLine
 10
37.506386
 20
115.317223
 30
0.0
 11
37.506386
 21
-65.954471
 31
0.0
  0
DIMENSION
  5
1598
100
AcDbEntity
  8
V0-ZBYTEK
 62
    41
100
AcDbDimension
  2
*D25
 10
37.506386
 20
-85.467196
 30
0.0
 11
7.756386
 21
-48.967196
 31
0.0
 12
0.0
 22
-30.0
 32
0.0
 70
    32
  3
ED10
100
AcDbAlignedDimension
 13
-21.993614
 23
-65.954471
 33
0.0
 14
37.506386
 24
-65.954471
 34
0.0
100
AcDbRotatedDimension
  0
LINE
  5
15B6
100
AcDbEntity
  8
V0-VYPLNE
  6
DASHED
 62
    32
100
AcDbLine
 10
37.506386
 20
100.545529
 30
0.0
 11
-21.993614
 21
100.545529
 31
0.0
  0
LINE
  5
15B7
100
AcDbEntity
  8
V0-VYPLNE
  6
DASHED
 62
    32
100
AcDbLine
 10
37.506386
 20
-59.454471
 30
0.0
 11
-21.993614
 21
-59.454471
 31
0.0
  0
DIMENSION
  5
15C4
100
AcDbEntity
  8
V0-ZBYTEK
 62
    41
100
AcDbDimension
  2
*D28
 10
-40.635293
 20
-59.454471
 30
0.0
 11
-47.135293
 21
20.545529
 31
0.0
 70
    32
  1
%%c<>
  3
ED10
100
AcDbAlignedDimension
 13
-21.993614
 23
100.545529
 33
0.0
 14
-21.993614
 24
-59.454471
 34
0.0
 50
90.0
100
AcDbRotatedDimension
  0
DIMENSION
  5
160F
100
AcDbEntity
  8
V0-ZBYTEK
 62
    41
100
AcDbDimension
  2
*D33
 10
223.796553
 20
107.653681
 30
0.0
 11
217.295569
 21
117.433039
 31
0.0
 12
-131.464446
 22
2.27878
 32
0.0
 70
    32
  3
ED10
100
AcDbAlignedDimension
 13
190.844473
 23
127.212397
 33
0.0
 14
190.844473
 24
107.653681
 34
0.0
 50
90.0
100
AcDbRotatedDimension
  0
DIMENSION
  5
162D
100
AcDbEntity
  8
V0-ZBYTEK
 62
    41
100
AcDbDimension
  2
*D34
 10
62.782192
 20
-65.954471
 30
0.0
 11
56.282192
 21
20.545529
 31
0.0
 70
    32
  1
%%c<>
  3
ED10
100
AcDbAlignedDimension
 13
37.506386
 23
107.045529
 33
0.0
 14
37.506386
 24
-65.954471
 34
0.0
 50
90.0
100
AcDbRotatedDimension
  0
CIRCLE
  5
16FE
100
AcDbEntity
  8
V0-OBRYS
100
AcDbCircle
 10
180.127304
 20
20.545529
 30
0.0
 40
80.025
  0
ARC
  5
16FF
100
AcDbEntity
  8
V0-OBRYS
100
AcDbCircle
 10
180.127304
 20
20.545529
 30
0.0
 40
86.9605
100
AcDbArc
 50
98.783785
 51
80.642422
  0
CIRCLE
  5
1702
100
AcDbEntity
  8
V0-OBRYS
100
AcDbCircle
 10
180.127304
 20
20.545529
 30
0.0
 40
85.36
  0
ARC
  5
174E
100
AcDbEntity
  8
V0-OBRYS
100
AcDbCircle
 10
166.389781
 20
109.45094
 30
0.0
 40
3.0
100
AcDbArc
 50
278.783785
 51
0.0
  0
ARC
  5
174F
100
AcDbEntity
  8
V0-OBRYS
100
AcDbCircle
 10
167.862427
 20
108.050171
 30
0.0
 40
3.0
100
AcDbArc
 50
277.978746
 51
0.0
  0
ARC
  5
1750
100
AcDbEntity
  8
V0-OBRYS
100
AcDbCircle
 10
193.281827
 20
107.920858
 30
0.0
 40
3.0
100
AcDbArc
 50
180.0
 51
261.43831
  0
ARC
  5
1751
100
AcDbEntity
  8
V0-OBRYS
100
AcDbCircle
 10
194.754473
 20
109.308908
 30
0.0
 40
3.0
100
AcDbArc
 50
180.0
 51
260.642422
  0
VIEWPORT
  5
22
100
AcDbEntity
 67
     1
  8
0
100
AcDbViewport
 10
261.517699
 20
148.5
 30
0.0
 40
523.035398
 41
297.0
 68
    -1
 69
     1
1001
ACAD
1000
MVIEW
1002
{
1070
    16
1010
0.0
1020
0.0
1030
0.0
1010
0.0
1020
0.0
1030
1.0
1040
0.0
1040
297.0
1040
261.517699
1040
148.5
1040
50.0
1040
0.0
1040
0.0
1070
     0
1070
   100
1070
     1
1070
     1
1070
     0
1070
     0
1070
     0
1070
     0
1040
0.0
1040
0.0
1040
0.0
1040
1.0
1040
1.0
1040
10.0
1040
10.0
1070
     0
1002
{
1002
}
1002
}
  0
ENDSEC
  0
SECTION
  2
OBJECTS
  0
DICTIONARY
  5
C
100
AcDbDictionary
  3
ACAD_GROUP
350
D
  3
ACAD_MLINESTYLE
350
E
  3
ACDBVARIABLEDICTIONARY
350
5D
  0
DICTIONARY
  5
D
102
{ACAD_REACTORS
330
C
102
}
100
AcDbDictionary
  0
DICTIONARY
  5
E
102
{ACAD_REACTORS
330
C
102
}
100
AcDbDictionary
  3
STANDARD
350
13
  0
DICTIONARY
  5
5D
102
{ACAD_REACTORS
330
C
102
}
100
AcDbDictionary
  3
DIMADEC
350
5E
  3
SORTENTS
350
3D8
  0
MLINESTYLE
  5
13
102
{ACAD_REACTORS
330
E
102
}
100
AcDbMlineStyle
  2
STANDARD
 70
     0
  3

 62
     0
 51
90.0
 52
90.0
 71
     2
 49
0.5
 62
   256
  6
BYLAYER
 49
-0.5
 62
   256
  6
BYLAYER
  0
DICTIONARYVAR
  5
5E
102
{ACAD_REACTORS
330
5D
102
}
100
DictionaryVariables
280
     0
  1
0
  0
DICTIONARYVAR
  5
3D8
102
{ACAD_REACTORS
330
5D
102
}
100
DictionaryVariables
280
     0
  1
96
  0
ENDSEC
  0
EOF
