  0
SECTION
  2
HEADER
  9
$ACADVER
  1
AC1015
  9
$ACADMAINTVER
 70
    13
  9
$DWGCODEPAGE
  3
ANSI_1252
  9
$INSBASE
 10
0.0
 20
0.0
 30
0.0
  9
$EXTMIN
 10
652.7075571935228
 20
31.20040953316902
 30
-340.5
  9
$EXTMAX
 10
1978.685544803572
 20
996.3783821384735
 30
129.4999999999999
  9
$LIMMIN
 10
0.0
 20
0.0
  9
$LIMMAX
 10
420.0
 20
297.0
  9
$ORTHOMODE
 70
     1
  9
$REGENMODE
 70
     1
  9
$FILLMODE
 70
     1
  9
$QTEXTMODE
 70
     0
  9
$MIRRTEXT
 70
     1
  9
$LTSCALE
 40
1.0
  9
$ATTMODE
 70
     1
  9
$TEXTSIZE
 40
20.0
  9
$TRACEWID
 40
1.0
  9
$TEXTSTYLE
  7
Standard
  9
$CLAYER
  8
0
  9
$CELTYPE
  6
ByLayer
  9
$CECOLOR
 62
   256
  9
$CELTSCALE
 40
1.0
  9
$DISPSILH
 70
     0
  9
$DIMSCALE
 40
10.0
  9
$DIMASZ
 40
2.0
  9
$DIMEXO
 40
0.625
  9
$DIMDLI
 40
3.75
  9
$DIMRND
 40
0.0
  9
$DIMDLE
 40
0.0
  9
$DIMEXE
 40
1.25
  9
$DIMTP
 40
0.0
  9
$DIMTM
 40
0.0
  9
$DIMTXT
 40
2.0
  9
$DIMCEN
 40
2.5
  9
$DIMTSZ
 40
0.0
  9
$DIMTOL
 70
     0
  9
$DIMLIM
 70
     0
  9
$DIMTIH
 70
     0
  9
$DIMTOH
 70
     0
  9
$DIMSE1
 70
     0
  9
$DIMSE2
 70
     0
  9
$DIMTAD
 70
     1
  9
$DIMZIN
 70
     8
  9
$DIMBLK
  1

  9
$DIMASO
 70
     1
  9
$DIMSHO
 70
     1
  9
$DIMPOST
  1

  9
$DIMAPOST
  1

  9
$DIMALT
 70
     0
  9
$DIMALTD
 70
     3
  9
$DIMALTF
 40
0.03937007874016
  9
$DIMLFAC
 40
1.0
  9
$DIMTOFL
 70
     1
  9
$DIMTVP
 40
0.0
  9
$DIMTIX
 70
     0
  9
$DIMSOXD
 70
     0
  9
$DIMSAH
 70
     0
  9
$DIMBLK1
  1

  9
$DIMBLK2
  1

  9
$DIMSTYLE
  2
ISO-25
  9
$DIMCLRD
 70
     0
  9
$DIMCLRE
 70
     0
  9
$DIMCLRT
 70
     0
  9
$DIMTFAC
 40
1.0
  9
$DIMGAP
 40
0.625
  9
$DIMJUST
 70
     0
  9
$DIMSD1
 70
     0
  9
$DIMSD2
 70
     0
  9
$DIMTOLJ
 70
     0
  9
$DIMTZIN
 70
     8
  9
$DIMALTZ
 70
     0
  9
$DIMALTTZ
 70
     0
  9
$DIMUPT
 70
     0
  9
$DIMDEC
 70
     2
  9
$DIMTDEC
 70
     2
  9
$DIMALTU
 70
     2
  9
$DIMALTTD
 70
     3
  9
$DIMTXSTY
  7
Standard
  9
$DIMAUNIT
 70
     0
  9
$DIMADEC
 70
     0
  9
$DIMALTRND
 40
0.0
  9
$DIMAZIN
 70
     0
  9
$DIMDSEP
 70
    44
  9
$DIMATFIT
 70
     3
  9
$DIMFRAC
 70
     0
  9
$DIMLDRBLK
  1

  9
$DIMLUNIT
 70
     2
  9
$DIMLWD
 70
    -2
  9
$DIMLWE
 70
    -2
  9
$DIMTMOVE
 70
     0
  9
$LUNITS
 70
     2
  9
$LUPREC
 70
     4
  9
$SKETCHINC
 40
1.0
  9
$FILLETRAD
 40
2.5
  9
$AUNITS
 70
     0
  9
$AUPREC
 70
     0
  9
$MENU
  1
.
  9
$ELEVATION
 40
0.0
  9
$PELEVATION
 40
0.0
  9
$THICKNESS
 40
0.0
  9
$LIMCHECK
 70
     0
  9
$CHAMFERA
 40
10.0
  9
$CHAMFERB
 40
10.0
  9
$CHAMFERC
 40
20.0
  9
$CHAMFERD
 40
0.0
  9
$SKPOLY
 70
     0
  9
$TDCREATE
 40
2453639.692351574
  9
$TDUCREATE
 40
2453639.650684907
  9
$TDUPDATE
 40
2453687.421711875
  9
$TDUUPDATE
 40
2453687.380045208
  9
$TDINDWG
 40
0.1333735648
  9
$TDUSRTIMER
 40
0.1333729861
  9
$USRTIMER
 70
     1
  9
$ANGBASE
 50
0.0
  9
$ANGDIR
 70
     0
  9
$PDMODE
 70
     0
  9
$PDSIZE
 40
0.0
  9
$PLINEWID
 40
0.0
  9
$SPLFRAME
 70
     0
  9
$SPLINETYPE
 70
     6
  9
$SPLINESEGS
 70
     8
  9
$HANDSEED
  5
30F
  9
$SURFTAB1
 70
     6
  9
$SURFTAB2
 70
     6
  9
$SURFTYPE
 70
     6
  9
$SURFU
 70
     6
  9
$SURFV
 70
     6
  9
$UCSBASE
  2

  9
$UCSNAME
  2

  9
$UCSORG
 10
0.0
 20
0.0
 30
0.0
  9
$UCSXDIR
 10
1.0
 20
0.0
 30
0.0
  9
$UCSYDIR
 10
0.0
 20
1.0
 30
0.0
  9
$UCSORTHOREF
  2

  9
$UCSORTHOVIEW
 70
     1
  9
$UCSORGTOP
 10
0.0
 20
0.0
 30
0.0
  9
$UCSORGBOTTOM
 10
0.0
 20
0.0
 30
0.0
  9
$UCSORGLEFT
 10
0.0
 20
0.0
 30
0.0
  9
$UCSORGRIGHT
 10
0.0
 20
0.0
 30
0.0
  9
$UCSORGFRONT
 10
0.0
 20
0.0
 30
0.0
  9
$UCSORGBACK
 10
0.0
 20
0.0
 30
0.0
  9
$PUCSBASE
  2

  9
$PUCSNAME
  2

  9
$PUCSORG
 10
0.0
 20
0.0
 30
0.0
  9
$PUCSXDIR
 10
1.0
 20
0.0
 30
0.0
  9
$PUCSYDIR
 10
0.0
 20
1.0
 30
0.0
  9
$PUCSORTHOREF
  2

  9
$PUCSORTHOVIEW
 70
     0
  9
$PUCSORGTOP
 10
0.0
 20
0.0
 30
0.0
  9
$PUCSORGBOTTOM
 10
0.0
 20
0.0
 30
0.0
  9
$PUCSORGLEFT
 10
0.0
 20
0.0
 30
0.0
  9
$PUCSORGRIGHT
 10
0.0
 20
0.0
 30
0.0
  9
$PUCSORGFRONT
 10
0.0
 20
0.0
 30
0.0
  9
$PUCSORGBACK
 10
0.0
 20
0.0
 30
0.0
  9
$USERI1
 70
     0
  9
$USERI2
 70
     0
  9
$USERI3
 70
     0
  9
$USERI4
 70
     0
  9
$USERI5
 70
     0
  9
$USERR1
 40
0.0
  9
$USERR2
 40
0.0
  9
$USERR3
 40
0.0
  9
$USERR4
 40
0.0
  9
$USERR5
 40
0.0
  9
$WORLDVIEW
 70
     1
  9
$SHADEDGE
 70
     3
  9
$SHADEDIF
 70
    70
  9
$TILEMODE
 70
     1
  9
$MAXACTVP
 70
    64
  9
$PINSBASE
 10
0.0
 20
0.0
 30
0.0
  9
$PLIMCHECK
 70
     0
  9
$PEXTMIN
 10
1.000000000000000E+20
 20
1.000000000000000E+20
 30
1.000000000000000E+20
  9
$PEXTMAX
 10
-1.000000000000000E+20
 20
-1.000000000000000E+20
 30
-1.000000000000000E+20
  9
$PLIMMIN
 10
0.0
 20
0.0
  9
$PLIMMAX
 10
420.0
 20
297.0
  9
$UNITMODE
 70
     0
  9
$VISRETAIN
 70
     1
  9
$PLINEGEN
 70
     0
  9
$PSLTSCALE
 70
     1
  9
$TREEDEPTH
 70
  3020
  9
$CMLSTYLE
  2
Standard
  9
$CMLJUST
 70
     0
  9
$CMLSCALE
 40
20.0
  9
$PROXYGRAPHICS
 70
     1
  9
$MEASUREMENT
 70
     1
  9
$CELWEIGHT
370
    -1
  9
$ENDCAPS
280
     0
  9
$JOINSTYLE
280
     0
  9
$LWDISPLAY
290
     0
  9
$INSUNITS
 70
     4
  9
$HYPERLINKBASE
  1

  9
$STYLESHEET
  1

  9
$XEDIT
290
     1
  9
$CEPSNTYPE
380
     0
  9
$PSTYLEMODE
290
     1
  9
$FINGERPRINTGUID
  2
{9B47308E-04D6-42FB-BD32-F27AC533D1CD}
  9
$VERSIONGUID
  2
{F2FE1CF1-67D4-464C-B437-F575F2C70B93}
  9
$EXTNAMES
290
     1
  9
$PSVPSCALE
 40
0.0
  9
$OLESTARTUP
290
     0
  0
ENDSEC
  0
SECTION
  2
CLASSES
  0
CLASS
  1
ACDBDICTIONARYWDFLT
  2
AcDbDictionaryWithDefault
  3
AutoCAD 2000
 90
        0
280
     0
281
     0
  0
CLASS
  1
ACDBPLACEHOLDER
  2
AcDbPlaceHolder
  3
AutoCAD 2000
 90
        0
280
     0
281
     0
  0
CLASS
  1
LAYOUT
  2
AcDbLayout
  3
AutoCAD 2000
 90
        0
280
     0
281
     0
  0
CLASS
  1
DICTIONARYVAR
  2
AcDbDictionaryVar
  3
AutoCAD 2000
 90
        0
280
     0
281
     0
  0
CLASS
  1
DIMASSOC
  2
AcDbDimAssoc
  3
"AcDbDimAssoc|Product Desc:     AcDim ARX App For Dimension|Company:          Autodesk, Inc.|WEB Address:      www.autodesk.com"
 90
        0
280
     0
281
     0
  0
ENDSEC
  0
SECTION
  2
TABLES
  0
TABLE
  2
VPORT
  5
8
330
0
100
AcDbSymbolTable
 70
     4
  0
VPORT
  5
30E
330
8
100
AcDbSymbolTableRecord
100
AcDbViewportTableRecord
  2
*Active
 70
     0
 10
0.0
 20
0.0
 11
1.0
 21
1.0
 12
-283.1141270214739
 22
-39.39405227311022
 13
0.0
 23
0.0
 14
10.0
 24
10.0
 15
10.0
 25
10.0
 16
0.0
 26
0.0
 36
1.0
 17
1283.649268852754
 27
527.9989202369555
 37
-25.19035298920627
 40
796.4883022502236
 41
1.862475442043221
 42
50.0
 43
0.0
 44
0.0
 50
0.0
 51
0.0
 71
     0
 72
   100
 73
     1
 74
     3
 75
     0
 76
     0
 77
     0
 78
     0
281
     1
 65
     1
110
0.0
120
0.0
130
0.0
111
1.0
121
0.0
131
0.0
112
0.0
122
1.0
132
0.0
 79
     1
146
0.0
  0
ENDTAB
  0
TABLE
  2
LTYPE
  5
5
330
0
100
AcDbSymbolTable
 70
     3
  0
LTYPE
  5
14
330
5
100
AcDbSymbolTableRecord
100
AcDbLinetypeTableRecord
  2
ByBlock
 70
     0
  3

 72
    65
 73
     0
 40
0.0
  0
LTYPE
  5
15
330
5
100
AcDbSymbolTableRecord
100
AcDbLinetypeTableRecord
  2
ByLayer
 70
     0
  3

 72
    65
 73
     0
 40
0.0
  0
LTYPE
  5
16
330
5
100
AcDbSymbolTableRecord
100
AcDbLinetypeTableRecord
  2
Continuous
 70
     0
  3
Solid line
 72
    65
 73
     0
 40
0.0
  0
LTYPE
  5
121
330
5
100
AcDbSymbolTableRecord
100
AcDbLinetypeTableRecord
  2
ACAD_ISO02W100
 70
     0
  3
ISO èárkovaná __ __ __ __ __ __ __ __ __ __ __ 
 72
    65
 73
     2
 40
15.0
 49
12.0
 74
     0
 49
-3.0
 74
     0
  0
LTYPE
  5
122
330
5
100
AcDbSymbolTableRecord
100
AcDbLinetypeTableRecord
  2
ACAD_ISO03W100
 70
     0
  3
ISO pøerušovaná __    __    __    __    __    _
 72
    65
 73
     2
 40
30.0
 49
12.0
 74
     0
 49
-18.0
 74
     0
  0
ENDTAB
  0
TABLE
  2
LAYER
  5
2
330
0
100
AcDbSymbolTable
 70
     5
  0
LAYER
  5
10
330
2
100
AcDbSymbolTableRecord
100
AcDbLayerTableRecord
  2
0
 70
     0
 62
     7
  6
Continuous
370
    -3
390
F
  0
LAYER
  5
2B
330
2
100
AcDbSymbolTableRecord
100
AcDbLayerTableRecord
  2
koty
 70
     0
 62
   -41
  6
Continuous
370
    -3
390
F
  0
LAYER
  5
2C
330
2
100
AcDbSymbolTableRecord
100
AcDbLayerTableRecord
  2
popis
 70
     0
 62
  -210
  6
Continuous
370
    -3
390
F
  0
LAYER
  5
4E
330
2
100
AcDbSymbolTableRecord
100
AcDbLayerTableRecord
  2
Defpoints
 70
     0
 62
     7
  6
Continuous
290
     0
370
    -3
390
F
  0
LAYER
  5
C4
330
2
100
AcDbSymbolTableRecord
100
AcDbLayerTableRecord
  2
srafy
 70
     0
 62
   -90
  6
Continuous
370
    -3
390
F
  0
ENDTAB
  0
TABLE
  2
STYLE
  5
3
330
0
100
AcDbSymbolTable
 70
     2
  0
STYLE
  5
11
330
3
100
AcDbSymbolTableRecord
100
AcDbTextStyleTableRecord
  2
Standard
 70
     0
 40
0.0
 41
1.0
 50
0.0
 71
     0
 42
20.0
  3
txt
  4

  0
STYLE
  5
120
330
3
100
AcDbSymbolTableRecord
100
AcDbTextStyleTableRecord
  2

 70
     1
 40
0.0
 41
1.0
 50
0.0
 71
     0
 42
2.5
  3
ltypeshp.shx
  4

  0
ENDTAB
  0
TABLE
  2
VIEW
  5
6
330
0
100
AcDbSymbolTable
 70
     0
  0
ENDTAB
  0
TABLE
  2
UCS
  5
7
330
0
100
AcDbSymbolTable
 70
     0
  0
ENDTAB
  0
TABLE
  2
APPID
  5
9
330
0
100
AcDbSymbolTable
 70
     1
  0
APPID
  5
12
330
9
100
AcDbSymbolTableRecord
100
AcDbRegAppTableRecord
  2
ACAD
 70
     0
  0
ENDTAB
  0
TABLE
  2
DIMSTYLE
  5
A
330
0
100
AcDbSymbolTable
 70
     1
100
AcDbDimStyleTable
 71
     1
340
27
  0
DIMSTYLE
105
27
102
{ACAD_REACTORS
330
21D
330
235
330
24D
330
265
330
27D
330
2A2
102
}
330
A
100
AcDbSymbolTableRecord
100
AcDbDimStyleTableRecord
  2
ISO-25
 70
     0
 40
10.0
 41
2.0
 42
0.625
 43
3.75
 44
1.25
 73
     0
 74
     0
 77
     1
 78
     8
140
2.0
141
2.5
143
0.03937007874016
147
0.625
171
     3
172
     1
271
     2
272
     2
274
     3
278
    44
283
     0
284
     8
340
11
  0
ENDTAB
  0
TABLE
  2
BLOCK_RECORD
  5
1
330
0
100
AcDbSymbolTable
 70
     7
  0
BLOCK_RECORD
  5
1F
330
1
100
AcDbSymbolTableRecord
100
AcDbBlockTableRecord
  2
*Model_Space
340
22
  0
BLOCK_RECORD
  5
1B
330
1
100
AcDbSymbolTableRecord
100
AcDbBlockTableRecord
  2
*Paper_Space
340
1E
  0
BLOCK_RECORD
  5
23
330
1
100
AcDbSymbolTableRecord
100
AcDbBlockTableRecord
  2
*Paper_Space0
340
26
  0
BLOCK_RECORD
  5
21E
330
1
100
AcDbSymbolTableRecord
100
AcDbBlockTableRecord
  2
*D1
340
0
  0
BLOCK_RECORD
  5
236
330
1
100
AcDbSymbolTableRecord
100
AcDbBlockTableRecord
  2
*D2
340
0
  0
BLOCK_RECORD
  5
24E
330
1
100
AcDbSymbolTableRecord
100
AcDbBlockTableRecord
  2
*D3
340
0
  0
BLOCK_RECORD
  5
266
330
1
100
AcDbSymbolTableRecord
100
AcDbBlockTableRecord
  2
*D4
340
0
  0
BLOCK_RECORD
  5
27E
330
1
100
AcDbSymbolTableRecord
100
AcDbBlockTableRecord
  2
*D5
340
0
  0
BLOCK_RECORD
  5
2A3
330
1
100
AcDbSymbolTableRecord
100
AcDbBlockTableRecord
  2
*D6
340
0
  0
ENDTAB
  0
ENDSEC
  0
SECTION
  2
BLOCKS
  0
BLOCK
  5
20
330
1F
100
AcDbEntity
  8
0
100
AcDbBlockBegin
  2
*Model_Space
 70
     0
 10
0.0
 20
0.0
 30
0.0
  3
*Model_Space
  1

  0
ENDBLK
  5
21
330
1F
100
AcDbEntity
  8
0
100
AcDbBlockEnd
  0
BLOCK
  5
1C
330
1B
100
AcDbEntity
 67
     1
  8
0
100
AcDbBlockBegin
  2
*Paper_Space
 70
     0
 10
0.0
 20
0.0
 30
0.0
  3
*Paper_Space
  1

  0
ENDBLK
  5
1D
330
1B
100
AcDbEntity
 67
     1
  8
0
100
AcDbBlockEnd
  0
BLOCK
  5
24
330
23
100
AcDbEntity
  8
0
100
AcDbBlockBegin
  2
*Paper_Space0
 70
     0
 10
0.0
 20
0.0
 30
0.0
  3
*Paper_Space0
  1

  0
ENDBLK
  5
25
330
23
100
AcDbEntity
  8
0
100
AcDbBlockEnd
  0
BLOCK
  5
228
330
21E
100
AcDbEntity
  8
0
100
AcDbBlockBegin
  2
*D1
 70
     1
 10
0.0
 20
0.0
 30
0.0
  3
*D1
  1

  0
LINE
  5
2F3
330
21E
100
AcDbEntity
  8
koty
 62
     0
370
    -2
100
AcDbLine
 10
745.0143498232228
 20
185.0451489961142
 30
0.0
 11
745.0143498232228
 21
31.20040953316902
 31
0.0
  0
LINE
  5
2F4
330
21E
100
AcDbEntity
  8
koty
 62
     0
370
    -2
100
AcDbLine
 10
1184.014349823222
 20
185.0451489961142
 30
0.0
 11
1184.014349823222
 21
31.20040953316902
 31
0.0
  0
LINE
  5
2F5
330
21E
100
AcDbEntity
  8
koty
 62
     0
370
    -2
100
AcDbLine
 10
765.0143498232227
 20
43.70040953316902
 30
0.0
 11
1164.014349823222
 21
43.70040953316902
 31
0.0
  0
SOLID
  5
2F6
330
21E
100
AcDbEntity
  8
koty
 62
     0
100
AcDbTrace
 10
765.0143498232227
 20
47.03374286650236
 30
0.0
 11
765.0143498232227
 21
40.36707619983569
 31
0.0
 12
745.0143498232228
 22
43.70040953316902
 32
0.0
 13
745.0143498232228
 23
43.70040953316902
 33
0.0
  0
SOLID
  5
2F7
330
21E
100
AcDbEntity
  8
koty
 62
     0
100
AcDbTrace
 10
1164.014349823222
 20
47.03374286650236
 30
0.0
 11
1164.014349823222
 21
40.36707619983569
 31
0.0
 12
1184.014349823222
 22
43.70040953316902
 32
0.0
 13
1184.014349823222
 23
43.70040953316902
 33
0.0
  0
MTEXT
  5
2F8
330
21E
100
AcDbEntity
  8
koty
 62
     0
100
AcDbMText
 10
964.5143498232227
 20
59.95040953316902
 30
0.0
 40
20.0
 41
0.0
 71
     5
 72
     1
  1
439
 73
     1
 44
1.0
  0
POINT
  5
2F9
330
21E
100
AcDbEntity
  8
Defpoints
 62
     0
100
AcDbPoint
 10
745.0143498232228
 20
191.2951489961142
 30
0.0
  0
POINT
  5
2FA
330
21E
100
AcDbEntity
  8
Defpoints
 62
     0
100
AcDbPoint
 10
1184.014349823222
 20
191.2951489961142
 30
0.0
  0
POINT
  5
2FB
330
21E
100
AcDbEntity
  8
Defpoints
 62
     0
100
AcDbPoint
 10
1184.014349823222
 20
43.70040953316902
 30
0.0
  0
ENDBLK
  5
229
330
21E
100
AcDbEntity
  8
0
100
AcDbBlockEnd
  0
BLOCK
  5
240
330
236
100
AcDbEntity
  8
0
100
AcDbBlockBegin
  2
*D2
 70
     1
 10
0.0
 20
0.0
 30
0.0
  3
*D2
  1

  0
LINE
  5
2EA
330
236
100
AcDbEntity
  8
koty
 62
     0
370
    -2
100
AcDbLine
 10
748.7643498232228
 20
181.2951489961142
 30
0.0
 11
666.457557193523
 21
181.2951489961142
 31
0.0
  0
LINE
  5
2EB
330
236
100
AcDbEntity
  8
koty
 62
     0
370
    -2
100
AcDbLine
 10
738.7643498232228
 20
581.2951489961143
 30
0.0
 11
666.4575571935231
 21
581.2951489961143
 31
0.0
  0
LINE
  5
2EC
330
236
100
AcDbEntity
  8
koty
 62
     0
370
    -2
100
AcDbLine
 10
678.957557193523
 20
201.2951489961142
 30
0.0
 11
678.9575571935231
 21
561.2951489961143
 31
0.0
  0
SOLID
  5
2ED
330
236
100
AcDbEntity
  8
koty
 62
     0
100
AcDbTrace
 10
675.6242238601896
 20
201.2951489961142
 30
0.0
 11
682.2908905268564
 21
201.2951489961142
 31
0.0
 12
678.957557193523
 22
181.2951489961142
 32
0.0
 13
678.957557193523
 23
181.2951489961142
 33
0.0
  0
SOLID
  5
2EE
330
236
100
AcDbEntity
  8
koty
 62
     0
100
AcDbTrace
 10
675.6242238601897
 20
561.2951489961143
 30
0.0
 11
682.2908905268564
 21
561.2951489961143
 31
0.0
 12
678.9575571935231
 22
581.2951489961143
 32
0.0
 13
678.9575571935231
 23
581.2951489961143
 33
0.0
  0
MTEXT
  5
2EF
330
236
100
AcDbEntity
  8
koty
 62
     0
100
AcDbMText
 10
662.707557193523
 20
381.2951489961143
 30
0.0
 40
20.0
 41
0.0
 71
     5
 72
     1
  1
400
 11
0.0000000000000001
 21
1.0
 31
0.0
 73
     1
 44
1.0
  0
POINT
  5
2F0
330
236
100
AcDbEntity
  8
Defpoints
 62
     0
100
AcDbPoint
 10
755.0143498232228
 20
181.2951489961142
 30
129.4999999999999
  0
POINT
  5
2F1
330
236
100
AcDbEntity
  8
Defpoints
 62
     0
100
AcDbPoint
 10
745.0143498232228
 20
581.2951489961143
 30
0.0
  0
POINT
  5
2F2
330
236
100
AcDbEntity
  8
Defpoints
 62
     0
100
AcDbPoint
 10
678.9575571935231
 20
581.2951489961143
 30
0.0
  0
ENDBLK
  5
241
330
236
100
AcDbEntity
  8
0
100
AcDbBlockEnd
  0
BLOCK
  5
258
330
24E
100
AcDbEntity
  8
0
100
AcDbBlockBegin
  2
*D3
 70
     1
 10
0.0
 20
0.0
 30
0.0
  3
*D3
  1

  0
LINE
  5
2C0
330
24E
100
AcDbEntity
  8
koty
 62
     0
370
    -2
100
AcDbLine
 10
807.0143498232228
 20
587.5451489961142
 30
0.0
 11
807.0143498232228
 21
885.794233868062
 31
0.0
  0
LINE
  5
2C1
330
24E
100
AcDbEntity
  8
koty
 62
     0
370
    -2
100
AcDbLine
 10
1122.014349823222
 20
587.5451489961142
 30
0.0
 11
1122.014349823222
 21
885.794233868062
 31
0.0
  0
LINE
  5
2C2
330
24E
100
AcDbEntity
  8
koty
 62
     0
370
    -2
100
AcDbLine
 10
827.0143498232227
 20
873.294233868062
 30
0.0
 11
1102.014349823222
 21
873.294233868062
 31
0.0
  0
SOLID
  5
2C3
330
24E
100
AcDbEntity
  8
koty
 62
     0
100
AcDbTrace
 10
827.0143498232227
 20
876.6275672013954
 30
0.0
 11
827.0143498232227
 21
869.9609005347287
 31
0.0
 12
807.0143498232228
 22
873.294233868062
 32
0.0
 13
807.0143498232228
 23
873.294233868062
 33
0.0
  0
SOLID
  5
2C4
330
24E
100
AcDbEntity
  8
koty
 62
     0
100
AcDbTrace
 10
1102.014349823222
 20
876.6275672013954
 30
0.0
 11
1102.014349823222
 21
869.9609005347287
 31
0.0
 12
1122.014349823222
 22
873.294233868062
 32
0.0
 13
1122.014349823222
 23
873.294233868062
 33
0.0
  0
MTEXT
  5
2C5
330
24E
100
AcDbEntity
  8
koty
 62
     0
100
AcDbMText
 10
964.5143498232227
 20
889.544233868062
 30
0.0
 40
20.0
 41
0.0
 71
     5
 72
     1
  1
315
 73
     1
 44
1.0
  0
POINT
  5
2C6
330
24E
100
AcDbEntity
  8
Defpoints
 62
     0
100
AcDbPoint
 10
807.0143498232228
 20
581.2951489961142
 30
0.0
  0
POINT
  5
2C7
330
24E
100
AcDbEntity
  8
Defpoints
 62
     0
100
AcDbPoint
 10
1122.014349823222
 20
581.2951489961142
 30
0.0
  0
POINT
  5
2C8
330
24E
100
AcDbEntity
  8
Defpoints
 62
     0
100
AcDbPoint
 10
1122.014349823222
 20
873.294233868062
 30
0.0
  0
ENDBLK
  5
259
330
24E
100
AcDbEntity
  8
0
100
AcDbBlockEnd
  0
BLOCK
  5
270
330
266
100
AcDbEntity
  8
0
100
AcDbBlockBegin
  2
*D4
 70
     1
 10
0.0
 20
0.0
 30
0.0
  3
*D4
  1

  0
LINE
  5
2D6
330
266
100
AcDbEntity
  8
koty
 62
     0
370
    -2
100
AcDbLine
 10
1389.888011451967
 20
175.0451489961142
 30
0.0
 11
1389.888011451967
 21
31.20040953316902
 31
0.0
  0
LINE
  5
2D7
330
266
100
AcDbEntity
  8
koty
 62
     0
370
    -2
100
AcDbLine
 10
1859.888011451967
 20
175.0451489961142
 30
0.0
 11
1859.888011451967
 21
31.20040953316902
 31
0.0
  0
LINE
  5
2D8
330
266
100
AcDbEntity
  8
koty
 62
     0
370
    -2
100
AcDbLine
 10
1409.888011451967
 20
43.70040953316902
 30
0.0
 11
1839.888011451966
 21
43.70040953316902
 31
0.0
  0
SOLID
  5
2D9
330
266
100
AcDbEntity
  8
koty
 62
     0
100
AcDbTrace
 10
1409.888011451967
 20
47.03374286650236
 30
0.0
 11
1409.888011451967
 21
40.36707619983569
 31
0.0
 12
1389.888011451967
 22
43.70040953316902
 32
0.0
 13
1389.888011451967
 23
43.70040953316902
 33
0.0
  0
SOLID
  5
2DA
330
266
100
AcDbEntity
  8
koty
 62
     0
100
AcDbTrace
 10
1839.888011451966
 20
47.03374286650236
 30
0.0
 11
1839.888011451966
 21
40.36707619983569
 31
0.0
 12
1859.888011451967
 22
43.70040953316902
 32
0.0
 13
1859.888011451967
 23
43.70040953316902
 33
0.0
  0
MTEXT
  5
2DB
330
266
100
AcDbEntity
  8
koty
 62
     0
100
AcDbMText
 10
1624.888011451967
 20
59.95040953316902
 30
0.0
 40
20.0
 41
0.0
 71
     5
 72
     1
  1
470
 73
     1
 44
1.0
  0
POINT
  5
2DC
330
266
100
AcDbEntity
  8
Defpoints
 62
     0
100
AcDbPoint
 10
1389.888011451967
 20
181.2951489961142
 30
0.0
  0
POINT
  5
2DD
330
266
100
AcDbEntity
  8
Defpoints
 62
     0
100
AcDbPoint
 10
1859.888011451967
 20
181.2951489961142
 30
0.0
  0
POINT
  5
2DE
330
266
100
AcDbEntity
  8
Defpoints
 62
     0
100
AcDbPoint
 10
1859.888011451967
 20
43.70040953316902
 30
0.0
  0
ENDBLK
  5
271
330
266
100
AcDbEntity
  8
0
100
AcDbBlockEnd
  0
BLOCK
  5
288
330
27E
100
AcDbEntity
  8
0
100
AcDbBlockBegin
  2
*D5
 70
     1
 10
0.0
 20
0.0
 30
0.0
  3
*D5
  1

  0
LINE
  5
2CD
330
27E
100
AcDbEntity
  8
koty
 62
     0
370
    -2
100
AcDbLine
 10
1519.388011451966
 20
747.0451489961141
 30
0.0
 11
1519.388011451966
 21
885.794233868062
 31
0.0
  0
LINE
  5
2CE
330
27E
100
AcDbEntity
  8
koty
 62
     0
370
    -2
100
AcDbLine
 10
1730.388011451966
 20
787.0451489961141
 30
0.0
 11
1730.388011451966
 21
885.794233868062
 31
0.0
  0
LINE
  5
2CF
330
27E
100
AcDbEntity
  8
koty
 62
     0
370
    -2
100
AcDbLine
 10
1539.388011451966
 20
873.294233868062
 30
0.0
 11
1710.388011451966
 21
873.294233868062
 31
0.0
  0
SOLID
  5
2D0
330
27E
100
AcDbEntity
  8
koty
 62
     0
100
AcDbTrace
 10
1539.388011451966
 20
876.6275672013954
 30
0.0
 11
1539.388011451966
 21
869.9609005347287
 31
0.0
 12
1519.388011451966
 22
873.294233868062
 32
0.0
 13
1519.388011451966
 23
873.294233868062
 33
0.0
  0
SOLID
  5
2D1
330
27E
100
AcDbEntity
  8
koty
 62
     0
100
AcDbTrace
 10
1710.388011451966
 20
876.6275672013954
 30
0.0
 11
1710.388011451966
 21
869.9609005347287
 31
0.0
 12
1730.388011451966
 22
873.294233868062
 32
0.0
 13
1730.388011451966
 23
873.294233868062
 33
0.0
  0
MTEXT
  5
2D2
330
27E
100
AcDbEntity
  8
koty
 62
     0
100
AcDbMText
 10
1624.888011451966
 20
889.544233868062
 30
0.0
 40
20.0
 41
0.0
 71
     5
 72
     1
  1
211
 73
     1
 44
1.0
  0
POINT
  5
2D3
330
27E
100
AcDbEntity
  8
Defpoints
 62
     0
100
AcDbPoint
 10
1519.388011451966
 20
740.7951489961141
 30
0.0
  0
POINT
  5
2D4
330
27E
100
AcDbEntity
  8
Defpoints
 62
     0
100
AcDbPoint
 10
1730.388011451966
 20
780.7951489961141
 30
0.0
  0
POINT
  5
2D5
330
27E
100
AcDbEntity
  8
Defpoints
 62
     0
100
AcDbPoint
 10
1730.388011451966
 20
873.294233868062
 30
0.0
  0
ENDBLK
  5
289
330
27E
100
AcDbEntity
  8
0
100
AcDbBlockEnd
  0
BLOCK
  5
2AD
330
2A3
100
AcDbEntity
  8
0
100
AcDbBlockBegin
  2
*D6
 70
     1
 10
0.0
 20
0.0
 30
0.0
  3
*D6
  1

  0
LINE
  5
2DF
330
2A3
100
AcDbEntity
  8
koty
 62
     0
370
    -2
100
AcDbLine
 10
1866.138011451966
 20
181.2951489961142
 30
0.0
 11
1978.685544803571
 21
181.2951489961142
 31
0.0
  0
LINE
  5
2E0
330
2A3
100
AcDbEntity
  8
koty
 62
     0
370
    -2
100
AcDbLine
 10
1610.300086685134
 20
823.2951489961141
 30
0.0
 11
1978.685544803572
 21
823.2951489961141
 31
0.0
  0
LINE
  5
2E1
330
2A3
100
AcDbEntity
  8
koty
 62
     0
370
    -2
100
AcDbLine
 10
1966.185544803572
 20
201.2951489961142
 30
0.0
 11
1966.185544803572
 21
803.295148996114
 31
0.0
  0
SOLID
  5
2E2
330
2A3
100
AcDbEntity
  8
koty
 62
     0
100
AcDbTrace
 10
1962.852211470238
 20
201.2951489961142
 30
0.0
 11
1969.518878136905
 21
201.2951489961142
 31
0.0
 12
1966.185544803572
 22
181.2951489961142
 32
0.0
 13
1966.185544803572
 23
181.2951489961142
 33
0.0
  0
SOLID
  5
2E3
330
2A3
100
AcDbEntity
  8
koty
 62
     0
100
AcDbTrace
 10
1962.852211470238
 20
803.295148996114
 30
0.0
 11
1969.518878136905
 21
803.295148996114
 31
0.0
 12
1966.185544803572
 22
823.2951489961141
 32
0.0
 13
1966.185544803572
 23
823.2951489961141
 33
0.0
  0
MTEXT
  5
2E4
330
2A3
100
AcDbEntity
  8
koty
 62
     0
100
AcDbMText
 10
1949.935544803572
 20
502.2951489961145
 30
0.0
 40
20.0
 41
0.0
 71
     5
 72
     1
  1
642
 11
0.0000000000000001
 21
1.0
 31
0.0
 73
     1
 44
1.0
  0
POINT
  5
2E5
330
2A3
100
AcDbEntity
  8
Defpoints
 62
     0
100
AcDbPoint
 10
1859.888011451967
 20
181.2951489961142
 30
0.0
  0
POINT
  5
2E6
330
2A3
100
AcDbEntity
  8
Defpoints
 62
     0
100
AcDbPoint
 10
1604.050086685134
 20
823.2951489961141
 30
0.0
  0
POINT
  5
2E7
330
2A3
100
AcDbEntity
  8
Defpoints
 62
     0
100
AcDbPoint
 10
1966.185544803572
 20
823.2951489961141
 30
0.0
  0
ENDBLK
  5
2AE
330
2A3
100
AcDbEntity
  8
0
100
AcDbBlockEnd
  0
ENDSEC
  0
SECTION
  2
ENTITIES
  0
ARC
  5
19D
330
1F
100
AcDbEntity
  8
0
100
AcDbCircle
 10
1174.014349823222
 20
619.1384570797656
 30
-105.4999999999999
 40
10.0
100
AcDbArc
 50
0.0
 51
89.99999999999968
  0
ARC
  5
19E
330
1F
100
AcDbEntity
  8
0
100
AcDbCircle
 10
1174.014349823223
 20
619.1384570797656
 30
-105.4999999999999
 40
10.0
100
AcDbArc
 50
90.0
 51
180.0
  0
ARC
  5
19F
330
1F
100
AcDbEntity
  8
0
100
AcDbCircle
 10
755.0143498232228
 20
619.1384570797655
 30
-105.4999999999999
 40
10.0
100
AcDbArc
 50
90.0
 51
180.0
  0
ARC
  5
1A0
330
1F
100
AcDbEntity
  8
0
100
AcDbCircle
 10
755.0143498232228
 20
619.1384570797655
 30
-105.4999999999999
 40
10.0
100
AcDbArc
 50
0.0
 51
90.0
  0
LINE
  5
1A1
102
{ACAD_REACTORS
330
24C
102
}
330
1F
100
AcDbEntity
  8
0
100
AcDbLine
 10
755.0143498232228
 20
181.2951489961142
 30
129.4999999999999
 11
871.1571989083866
 21
181.2951489961142
 31
129.4999999999999
  0
LINE
  5
1A2
330
1F
100
AcDbEntity
  8
0
100
AcDbLine
 10
878.2671798079764
 20
184.2632096044905
 30
129.4999999999999
 11
897.3971187196573
 21
203.6054554199747
 31
129.4999999999999
  0
LINE
  5
1A3
330
1F
100
AcDbEntity
  8
0
100
AcDbLine
 10
904.5070996192471
 20
206.5735160283511
 30
129.4999999999999
 11
964.5143498232227
 21
206.5735160283511
 31
129.4999999999999
  0
LINE
  5
1A5
330
1F
100
AcDbEntity
  8
0
100
AcDbLine
 10
775.0143498232228
 20
201.2951489961142
 30
129.4999999999999
 11
862.8082014911147
 21
201.2951489961142
 31
129.4999999999999
  0
LINE
  5
1A6
330
1F
100
AcDbEntity
  8
0
100
AcDbLine
 10
869.9181823907045
 20
204.2632096044906
 30
129.4999999999999
 11
889.0481213023855
 21
223.6054554199748
 31
129.4999999999999
  0
LINE
  5
1A7
330
1F
100
AcDbEntity
  8
0
100
AcDbLine
 10
896.1581022019753
 20
226.5735160283512
 30
129.4999999999999
 11
964.5143498232227
 21
226.5735160283511
 31
129.4999999999999
  0
ARC
  5
1A8
330
1F
100
AcDbEntity
  8
0
100
AcDbCircle
 10
755.0143498232228
 20
191.2951489961142
 30
129.4999999999999
 40
10.0
100
AcDbArc
 50
180.0
 51
270.0
  0
ARC
  5
1A9
330
1F
100
AcDbEntity
  8
0
100
AcDbCircle
 10
775.0143498232228
 20
211.2951489961142
 30
129.4999999999999
 40
10.0
100
AcDbArc
 50
180.0
 51
270.0
  0
ARC
  5
1AA
330
1F
100
AcDbEntity
  8
0
100
AcDbCircle
 10
871.1571989083866
 20
191.2951489961142
 30
129.4999999999999
 40
10.0
100
AcDbArc
 50
270.0
 51
315.3161807980745
  0
ARC
  5
1AB
330
1F
100
AcDbEntity
  8
0
100
AcDbCircle
 10
862.8082014911147
 20
211.2951489961142
 30
129.4999999999999
 40
10.0
100
AcDbArc
 50
270.0
 51
315.3161807980744
  0
ARC
  5
1AC
330
1F
100
AcDbEntity
  8
0
100
AcDbCircle
 10
896.1581022019753
 20
216.5735160283511
 30
129.4999999999999
 40
10.0
100
AcDbArc
 50
89.99999999999998
 51
135.3161807980743
  0
ARC
  5
1AD
330
1F
100
AcDbEntity
  8
0
100
AcDbCircle
 10
904.5070996192471
 20
196.5735160283511
 30
129.4999999999999
 40
10.0
100
AcDbArc
 50
90.0
 51
135.3161807980745
  0
LINE
  5
1AE
330
1F
100
AcDbEntity
  8
0
100
AcDbLine
 10
1154.014349823222
 20
201.2951489961142
 30
129.4999999999999
 11
1066.22049815533
 21
201.2951489961142
 31
129.4999999999999
  0
LINE
  5
1AF
330
1F
100
AcDbEntity
  8
0
100
AcDbLine
 10
1174.014349823222
 20
181.2951489961142
 30
129.4999999999999
 11
1057.871500738058
 21
181.2951489961142
 31
129.4999999999999
  0
LINE
  5
1B0
330
1F
100
AcDbEntity
  8
0
100
AcDbLine
 10
1050.761519838469
 20
184.2632096044905
 30
129.4999999999999
 11
1031.631580926788
 21
203.6054554199747
 31
129.4999999999999
  0
LINE
  5
1B1
330
1F
100
AcDbEntity
  8
0
100
AcDbLine
 10
1024.521600027198
 20
206.5735160283511
 30
129.4999999999999
 11
964.5143498232227
 21
206.5735160283511
 31
129.4999999999999
  0
LINE
  5
1B2
330
1F
100
AcDbEntity
  8
0
100
AcDbLine
 10
1032.87059744447
 20
226.5735160283512
 30
129.4999999999999
 11
964.5143498232227
 21
226.5735160283511
 31
129.4999999999999
  0
LINE
  5
1B3
330
1F
100
AcDbEntity
  8
0
100
AcDbLine
 10
1059.110517255741
 20
204.2632096044906
 30
129.4999999999999
 11
1039.98057834406
 21
223.6054554199748
 31
129.4999999999999
  0
ARC
  5
1B4
330
1F
100
AcDbEntity
  8
0
100
AcDbCircle
 10
1024.521600027198
 20
196.5735160283511
 30
129.4999999999999
 40
10.0
100
AcDbArc
 50
44.68381920192546
 51
90.0
  0
ARC
  5
1B5
330
1F
100
AcDbEntity
  8
0
100
AcDbCircle
 10
1032.87059744447
 20
216.5735160283511
 30
129.4999999999999
 40
10.0
100
AcDbArc
 50
44.68381920192572
 51
90.00000000000003
  0
ARC
  5
1B6
330
1F
100
AcDbEntity
  8
0
100
AcDbCircle
 10
1066.22049815533
 20
211.2951489961142
 30
129.4999999999999
 40
10.0
100
AcDbArc
 50
224.6838192019255
 51
270.0
  0
ARC
  5
1B7
330
1F
100
AcDbEntity
  8
0
100
AcDbCircle
 10
1057.871500738058
 20
191.2951489961142
 30
129.4999999999999
 40
10.0
100
AcDbArc
 50
224.6838192019254
 51
270.0
  0
ARC
  5
1B8
330
1F
100
AcDbEntity
  8
0
100
AcDbCircle
 10
1154.014349823222
 20
211.2951489961142
 30
129.4999999999999
 40
10.0
100
AcDbArc
 50
270.0
 51
0.000000000000007
  0
ARC
  5
1B9
330
1F
100
AcDbEntity
  8
0
100
AcDbCircle
 10
1174.014349823222
 20
191.2951489961142
 30
129.4999999999999
 40
10.0
100
AcDbArc
 50
270.0
 51
0.000000000000007
  0
LINE
  5
1BE
330
1F
100
AcDbEntity
  8
0
100
AcDbLine
 10
884.7782758433888
 20
181.2951489961142
 30
-340.5
 11
964.5143498232227
 21
181.2951489961141
 31
-340.5
  0
LINE
  5
1BF
330
1F
100
AcDbEntity
  8
0
100
AcDbLine
 10
894.7962679984662
 20
201.2951489961142
 30
-340.5
 11
964.5143498232227
 21
201.2951489961142
 31
-340.5
  0
LINE
  5
1C4
330
1F
100
AcDbEntity
  8
0
100
AcDbLine
 10
1034.232431647979
 20
201.2951489961142
 30
-340.5
 11
964.5143498232227
 21
201.2951489961142
 31
-340.5
  0
LINE
  5
1C5
330
1F
100
AcDbEntity
  8
0
100
AcDbLine
 10
1044.250423803056
 20
181.2951489961142
 30
-340.5
 11
964.5143498232227
 21
181.2951489961141
 31
-340.5
  0
HATCH
  5
21C
330
1F
100
AcDbEntity
  8
srafy
100
AcDbHatch
 10
0.0
 20
0.0
 30
0.0
210
0.0
220
0.0
230
1.0
  2
NET
 70
     0
 71
     0
 91
        1
 92
        1
 93
        2
 72
     2
 10
964.5143498232227
 20
581.2951489961142
 40
157.5
 50
180.0
 51
360.0
 73
     1
 72
     1
 10
1122.014349823222
 20
581.2951489961142
 11
807.0143498232228
 21
581.2951489961142
 97
        0
 75
     0
 76
     1
 52
0.0
 41
5.0
 77
     0
 78
     2
 53
0.0
 43
0.0
 44
0.0
 45
0.0
 46
15.875
 79
     0
 53
90.0
 43
0.0
 44
0.0
 45
-15.875
 46
0.000000000000001
 79
     0
 98
        1
 10
0.0
 20
0.0
  0
DIMENSION
  5
21D
330
1F
100
AcDbEntity
  8
koty
100
AcDbDimension
  2
*D1
 10
1184.014349823222
 20
43.70040953316902
 30
0.0
 11
964.5143498232227
 21
59.95040953316902
 31
0.0
 70
    32
 71
     5
 42
439.0
  3
ISO-25
100
AcDbAlignedDimension
 13
745.0143498232228
 23
191.2951489961142
 33
0.0
 14
1184.014349823222
 24
191.2951489961142
 34
0.0
100
AcDbRotatedDimension
  0
DIMENSION
  5
235
102
{ACAD_XDICTIONARY
360
242
102
}
102
{ACAD_REACTORS
330
24C
102
}
330
1F
100
AcDbEntity
  8
koty
100
AcDbDimension
  2
*D2
 10
678.9575571935231
 20
581.2951489961143
 30
0.0
 11
662.707557193523
 21
381.2951489961143
 31
0.0
 70
    32
 71
     5
 42
400.0
  3
ISO-25
100
AcDbAlignedDimension
 13
755.0143498232228
 23
181.2951489961142
 33
129.4999999999999
 14
745.0143498232228
 24
581.2951489961143
 34
0.0
 50
90.0
100
AcDbRotatedDimension
  0
DIMENSION
  5
24D
330
1F
100
AcDbEntity
  8
koty
100
AcDbDimension
  2
*D3
 10
1122.014349823222
 20
873.294233868062
 30
0.0
 11
964.5143498232227
 21
889.544233868062
 31
0.0
 70
    32
 71
     5
 42
315.0
  3
ISO-25
100
AcDbAlignedDimension
 13
807.0143498232228
 23
581.2951489961142
 33
0.0
 14
1122.014349823222
 24
581.2951489961142
 34
0.0
100
AcDbRotatedDimension
  0
DIMENSION
  5
265
330
1F
100
AcDbEntity
  8
koty
100
AcDbDimension
  2
*D4
 10
1859.888011451967
 20
43.70040953316902
 30
0.0
 11
1624.888011451967
 21
59.95040953316902
 31
0.0
 70
    32
 71
     5
 42
469.9999999999997
  3
ISO-25
100
AcDbAlignedDimension
 13
1389.888011451967
 23
181.2951489961142
 33
0.0
 14
1859.888011451967
 24
181.2951489961142
 34
0.0
100
AcDbRotatedDimension
  0
DIMENSION
  5
27D
330
1F
100
AcDbEntity
  8
koty
100
AcDbDimension
  2
*D5
 10
1730.388011451966
 20
873.294233868062
 30
0.0
 11
1624.888011451966
 21
889.544233868062
 31
0.0
 70
    32
 71
     5
 42
211.0
  3
ISO-25
100
AcDbAlignedDimension
 13
1519.388011451966
 23
740.7951489961141
 33
0.0
 14
1730.388011451966
 24
780.7951489961141
 34
0.0
100
AcDbRotatedDimension
  0
DIMENSION
  5
2A2
330
1F
100
AcDbEntity
  8
koty
100
AcDbDimension
  2
*D6
 10
1966.185544803572
 20
823.2951489961141
 30
0.0
 11
1949.935544803572
 21
502.2951489961145
 31
0.0
 70
    32
 71
     5
 42
641.9999999999999
  3
ISO-25
100
AcDbAlignedDimension
 13
1859.888011451967
 23
181.2951489961142
 33
0.0
 14
1604.050086685134
 24
823.2951489961141
 34
0.0
 50
90.0
100
AcDbRotatedDimension
  0
TEXT
  5
2BA
330
1F
100
AcDbEntity
  8
popis
100
AcDbText
 10
969.0299334703322
 20
976.3783821384732
 30
0.0
 40
20.0
  1
PBT/4 315 - mobilní axiální ventilátor
100
AcDbText
  0
3DSOLID
  5
2CB
330
1F
100
AcDbEntity
  8
0
100
AcDbModelerGeometry
 70
     1
  1
koo lg n o          
  1
h J1410(1 nl ^ \VL kqoqm QK mk L>+ Q0) nm noeohenj mooj 
  1
rn fqfffffffffffffffj:rooh n:rono 
  1
=0;& {n {m {rn {rn |
  1
-:9@)+r:&:r>++-6= {rn {rn {rn {o {l {k |
  1
3*2/ {j {rn {i {o |
  1
:&:@-:961:2:1+ {rn j 8-6;  n l +-6 m k ,*-9 o l >;5 o k 8->; o f /0,+<7:<4 o k ,+03 nqjokoofnmhiniggml k 1+03 lo k ;,63 o g 93>+1:,, o h /6'>-:> o k 72>' o i 8-6;>- o j 28-6; loo j *8-6; o j )8-6; o no :1;@96:3;, |
  1
):-+:'@+:2/3>+: {rn l o n g |
  1
-:9@)+r:&:r>++-6= {rn {rn {rn {m {l {k |
  1
,7:33 {h {rn {rn {g {rn {m |
  1
-:9@)+r:&:r>++-6= {rn {rn {rn {i {l {k |
  1
9><: {f {no {nn {i {rn {nm 90-(>-; ,6183: |
  1
92:,7r:&:r>++-6= {rn {nl {rn {g |
  1
9><: {nk {nj {ni {i {rn {nh -:):-,:; ,6183: |
  1
300/ {rn {ng {nf {g |
  1
<01:r,*-9><: {rn fikqjnklkfgmlmmmg jgnqmfjnkgffinnkmm o o o rn nffqj o o n V V o n nffqj 90-(>-; V V V V |
  1
-:9@)+r:&:r>++-6= {rn {rn {f {g {l {k |
  1
92:,7r:&:r>++-6= {rn {mo {rn {no |
  1
9><: {mn {rn {mm {i {rn {ml 90-(>-; ,6183: |
  1
300/ {rn {rn {mk {no |
  1
/3>1:r,*-9><: {rn nnikqonklkfgmlmmmg jgnqmfjnkgffinnkmm rj o o n n o o 90-(>-;@) V V V V |
  1
300/ {rn {rn {mj {g |
  1
<0:;8: {rn {nf {nf {mk {mi 90-(>-; {nn {rn |
  1
-:9@)+r:&:r>++-6= {rn {rn {nk {no {l {k |
  1
92:,7r:&:r>++-6= {rn {mh {rn {nj |
  1
300/ {rn {rn {mg {nj |
  1
/3>1:r,*-9><: {rn fikqjnklkfgmlmmlol jgnqmfjnkgffinnlhh o o o n n o o 90-(>-;@) V V V V |
  1
<0:;8: {rn {mk {mk {nf {mi -:):-,:; {ni {rn |
  1
<0:;8: {rn {mj {mj {mg {mf -:):-,:; {ng {rn |
  1
:;8: {lo {ln {ln {nf {lm 90-(>-; |
  1
-:9@)+r:&:r>++-6= {rn {rn {mn {nj {l {k |
  1
<0:;8: {rn {mg {mg {mj {mf 90-(>-; {mm {rn |
  1
:;8: {ll {lk {lk {mg {lj 90-(>-; |
  1
/+36,+r:&:r>++-6= {rn {rn {rn {mi |
  1
):-+:' {rn {mi {li |
  1
:336/,:r<*-): {rn fikqjnklkfgmlmmmg jgnqmfjnkgffinnkmm rj o o n nffqj o o n V V |
  1
/+36,+r:&:r>++-6= {rn {rn {rn {mf |
  1
):-+:' {rn {mf {lh |
  1
:336/,:r<*-): {rn fikqjnklkfgmlmmmg jgnqmfjnkgffinnkmm o o o n nffqj o o n V V |
  1
/061+ {rn nnikqonklkfgmlmmmg jgnqmfjnkgffinnkmm rj |
  1
/061+ {rn nnikqonklkfgmlmmmg jgnqmfjnkgffinnkmm o |
  0
3DSOLID
  5
2CC
330
1F
100
AcDbEntity
  8
0
100
AcDbModelerGeometry
 70
     1
  1
koo lg n o          
  1
h J1410(1 nl ^ \VL kqoqm QK mk L>+ Q0) nm noeohenj mooj 
  1
rn fqfffffffffffffffj:rooh n:rono 
  1
=0;& {n {m {rn {rn |
  1
-:9@)+r:&:r>++-6= {rn {rn {rn {o {l {k |
  1
3*2/ {j {rn {i {o |
  1
:&:@-:961:2:1+ {rn j 8-6;  n l +-6 m k ,*-9 o l >;5 o k 8->; o f /0,+<7:<4 o k ,+03 nqjokoofnmhiniggml k 1+03 lo k ;,63 o g 93>+1:,, o h /6'>-:> o k 72>' o i 8-6;>- o j 28-6; loo j *8-6; o j )8-6; o no :1;@96:3;, |
  1
):-+:'@+:2/3>+: {rn l o n g |
  1
-:9@)+r:&:r>++-6= {rn {rn {rn {m {l {k |
  1
,7:33 {h {rn {rn {g {rn {m |
  1
-:9@)+r:&:r>++-6= {rn {rn {rn {i {l {k |
  1
9><: {f {no {nn {i {rn {nm 90-(>-; ,6183: |
  1
92:,7r:&:r>++-6= {rn {nl {rn {g |
  1
9><: {nk {nj {ni {i {rn {nh -:):-,:; ,6183: |
  1
300/ {rn {ng {nf {g |
  1
<01:r,*-9><: {rn fikqjnklkfgmlmmmg jgnqmfjnkgffinnkmm o o o rn njhqj o o n V V o n njhqj 90-(>-; V V V V |
  1
-:9@)+r:&:r>++-6= {rn {rn {f {g {l {k |
  1
92:,7r:&:r>++-6= {rn {mo {rn {no |
  1
9><: {mn {rn {mm {i {rn {ml 90-(>-; ,6183: |
  1
300/ {rn {rn {mk {no |
  1
/3>1:r,*-9><: {rn nnmmqonklkfgmlmmmg jgnqmfjnkgffinnkmm rmnn o o n n o o 90-(>-;@) V V V V |
  1
300/ {rn {rn {mj {g |
  1
<0:;8: {rn {nf {nf {mk {mi 90-(>-; {nn {rn |
  1
-:9@)+r:&:r>++-6= {rn {rn {nk {no {l {k |
  1
92:,7r:&:r>++-6= {rn {mh {rn {nj |
  1
300/ {rn {rn {mg {nj |
  1
/3>1:r,*-9><: {rn fikqjnklkfgmlmmmfn jgnqmfjnkgffinnlgg o o o n n o o 90-(>-;@) V V V V |
  1
<0:;8: {rn {mk {mk {nf {mi -:):-,:; {ni {rn |
  1
<0:;8: {rn {mj {mj {mg {mf -:):-,:; {ng {rn |
  1
:;8: {lo {ln {ln {nf {lm 90-(>-; |
  1
-:9@)+r:&:r>++-6= {rn {rn {mn {nj {l {k |
  1
<0:;8: {rn {mg {mg {mj {mf 90-(>-; {mm {rn |
  1
:;8: {ll {lk {lk {mg {lj 90-(>-; |
  1
/+36,+r:&:r>++-6= {rn {rn {rn {mi |
  1
):-+:' {rn {mi {li |
  1
:336/,:r<*-): {rn fikqjnklkfgmlmmmg jgnqmfjnkgffinnkmm rmnn o o n njhqj o o n V V |
  1
/+36,+r:&:r>++-6= {rn {rn {rn {mf |
  1
):-+:' {rn {mf {lh |
  1
:336/,:r<*-): {rn fikqjnklkfgmlmmmg jgnqmfjnkgffinnkmm o o o n njhqj o o n V V |
  1
/061+ {rn nnmmqonklkfgmlmmmg jgnqmfjnkgffinnkmm rmnn |
  1
/061+ {rn nnmmqonklkfgmlmmmg jgnqmfjnkgffinnkmm o |
  0
3DSOLID
  5
2E9
330
1F
100
AcDbEntity
  8
0
100
AcDbModelerGeometry
 70
     1
  1
koo lg n o          
  1
h J1410(1 nl ^ \VL kqoqm QK mk L>+ Q0) nm noeohenj mooj 
  1
rn fqfffffffffffffffj:rooh n:rono 
  1
=0;& {n {m {rn {rn |
  1
-:9@)+r:&:r>++-6= {rn {rn {rn {o {l {k |
  1
3*2/ {j {rn {i {o |
  1
:&:@-:961:2:1+ {rn j 8-6;  n l +-6 m k ,*-9 o l >;5 o k 8->; o f /0,+<7:<4 o k ,+03 nqjokoofnmhiniggml k 1+03 lo k ;,63 o g 93>+1:,, o h /6'>-:> o k 72>' o i 8-6;>- o j 28-6; loo j *8-6; o j )8-6; o no :1;@96:3;, |
  1
):-+:'@+:2/3>+: {rn l o n g |
  1
-:9@)+r:&:r>++-6= {rn {rn {rn {m {l {k |
  1
,7:33 {h {rn {rn {g {rn {m |
  1
-:9@)+r:&:r>++-6= {rn {rn {rn {i {l {k |
  1
9><: {f {no {nn {i {rn {nm 90-(>-; ,6183: |
  1
92:,7r:&:r>++-6= {rn {nl {rn {g |
  1
9><: {nk {nj {ni {i {rn {nh -:):-,:; ,6183: |
  1
300/ {rn {ng {nf {g |
  1
<01:r,*-9><: {rn fikqjnklkfgmlmmmg jgnqmfjnkgffinnkmm rmoi o o rn nikqkkloilmolmhlgm o o n V V o n nikqkkloilmolmhlgm 90-(>-; V V V V |
  1
-:9@)+r:&:r>++-6= {rn {rn {f {g {l {k |
  1
92:,7r:&:r>++-6= {rn {mo {rn {no |
  1
9><: {mn {rn {mm {i {rn {ml 90-(>-; ,6183: |
  1
300/ {rn {rn {mk {no |
  1
/3>1:r,*-9><: {rn nnmgqfjhknlomikfii jgnqmfjnkgffinnkmm rmnn o o n n o o 90-(>-;@) V V V V |
  1
300/ {rn {rn {mj {g |
  1
<0:;8: {rn {nf {nf {mk {mi 90-(>-; {nn {rn |
  1
-:9@)+r:&:r>++-6= {rn {rn {nk {no {l {k |
  1
92:,7r:&:r>++-6= {rn {mh {rn {nj |
  1
300/ {rn {rn {mg {nj |
  1
/3>1:r,*-9><: {rn fikqjnklkfgmlmmlol jgnqmfjnkgffinnlhh rmoi o o n n o o 90-(>-;@) V V V V |
  1
<0:;8: {rn {mk {mk {nf {mi -:):-,:; {ni {rn |
  1
<0:;8: {rn {mj {mj {mg {mf -:):-,:; {ng {rn |
  1
:;8: {lo {ln {ln {nf {lm 90-(>-; |
  1
-:9@)+r:&:r>++-6= {rn {rn {mn {nj {l {k |
  1
<0:;8: {rn {mg {mg {mj {mf 90-(>-; {mm {rn |
  1
:;8: {ll {lk {lk {mg {lj 90-(>-; |
  1
/+36,+r:&:r>++-6= {rn {rn {rn {mi |
  1
):-+:' {rn {mi {li |
  1
:336/,:r<*-): {rn fikqjnklkfgmlmmmg jgnqmfjnkgffinnkmm rmnn o o n nikqkkloilmolmhlgm o o n V V |
  1
/+36,+r:&:r>++-6= {rn {rn {rn {mf |
  1
):-+:' {rn {mf {lh |
  1
:336/,:r<*-): {rn fikqjnklkfgmlmmmg jgnqmfjnkgffinnkmm rmoi o o n nikqkkloilmolmhlgm o o n V V |
  1
/061+ {rn nnmgqfjhknlomikfii jgnqmfjnkgffinnkmm rmnn |
  1
/061+ {rn nnmgqfjhknlomikfii jgnqmfjnkgffinnkmm rmoi |
  0
LINE
  5
303
330
1F
100
AcDbEntity
  8
0
100
AcDbLine
 10
745.0143498232228
 20
619.1384570797655
 30
-105.4999999999999
 11
884.7782758433888
 21
181.2951489961142
 31
-340.5
  0
LINE
  5
304
330
1F
100
AcDbEntity
  8
0
100
AcDbLine
 10
765.0143498232227
 20
619.1384570797655
 30
-105.4999999999999
 11
894.7962679984662
 21
201.2951489961142
 31
-340.5
  0
LINE
  5
305
330
1F
100
AcDbEntity
  8
0
100
AcDbLine
 10
745.0143498232228
 20
191.2951489961142
 30
129.4999999999999
 11
745.0143498232228
 21
619.1384570797655
 31
-105.4999999999999
  0
LINE
  5
306
330
1F
100
AcDbEntity
  8
0
100
AcDbLine
 10
765.0143498232227
 20
619.1384570797655
 30
-105.4999999999999
 11
765.0143498232227
 21
211.2951489961142
 31
129.4999999999999
  0
LINE
  5
307
330
1F
100
AcDbEntity
  8
0
100
AcDbLine
 10
1164.014349823222
 20
211.2951489961142
 30
129.4999999999999
 11
1164.014349823223
 21
619.1384570797656
 31
-105.4999999999999
  0
LINE
  5
308
330
1F
100
AcDbEntity
  8
0
100
AcDbLine
 10
1164.014349823223
 20
619.1384570797656
 30
-105.4999999999999
 11
1034.232431647979
 21
201.2951489961142
 31
-340.5
  0
LINE
  5
309
330
1F
100
AcDbEntity
  8
0
100
AcDbLine
 10
1044.250423803056
 20
181.2951489961142
 30
-340.5
 11
1184.014349823222
 21
619.1384570797656
 31
-105.4999999999999
  0
LINE
  5
30A
330
1F
100
AcDbEntity
  8
0
100
AcDbLine
 10
1184.014349823222
 20
619.1384570797656
 30
-105.4999999999999
 11
1184.014349823222
 21
191.2951489961142
 31
129.4999999999999
  0
LWPOLYLINE
  5
30B
330
1F
100
AcDbEntity
  8
0
100
AcDbPolyline
 90
        3
 70
     1
 43
0.0
 10
1122.014349823222
 20
581.295148996114
 10
885.764349823223
 20
717.6941500921632
 10
885.7643498232228
 20
444.8961479000652
  0
ENDSEC
  0
SECTION
  2
OBJECTS
  0
DICTIONARY
  5
C
330
0
100
AcDbDictionary
281
     1
  3
ACAD_GROUP
350
D
  3
ACAD_LAYOUT
350
1A
  3
ACAD_MLINESTYLE
350
17
  3
ACAD_PLOTSETTINGS
350
19
  3
ACAD_PLOTSTYLENAME
350
E
  3
AcDbVariableDictionary
350
2E
  0
DICTIONARY
  5
242
330
235
100
AcDbDictionary
280
     1
281
     1
  3
ACAD_DIMASSOC
360
24C
  0
DICTIONARY
  5
D
102
{ACAD_REACTORS
330
C
102
}
330
C
100
AcDbDictionary
281
     1
  0
DICTIONARY
  5
1A
102
{ACAD_REACTORS
330
C
102
}
330
C
100
AcDbDictionary
281
     1
  3
Model
350
22
  3
Rozvržení1
350
1E
  3
Rozvržení2
350
26
  0
DICTIONARY
  5
17
102
{ACAD_REACTORS
330
C
102
}
330
C
100
AcDbDictionary
281
     1
  3
Standard
350
18
  0
DICTIONARY
  5
19
102
{ACAD_REACTORS
330
C
102
}
330
C
100
AcDbDictionary
281
     1
  0
ACDBDICTIONARYWDFLT
  5
E
102
{ACAD_REACTORS
330
C
102
}
330
C
100
AcDbDictionary
281
     1
  3
Normal
350
F
100
AcDbDictionaryWithDefault
340
F
  0
DICTIONARY
  5
2E
102
{ACAD_REACTORS
330
C
102
}
330
C
100
AcDbDictionary
281
     1
  3
DIMASSOC
350
30
  3
HIDETEXT
350
2F
  0
DIMASSOC
  5
24C
102
{ACAD_REACTORS
330
242
102
}
330
242
100
AcDbDimAssoc
330
235
 90
        1
 70
     0
 71
     0
  1
AcDbOsnapPointRef
 72
    13
331
1A1
 73
     2
 91
        0
 40
0.0
 10
755.0143498232228
 20
181.2951489961142
 30
129.4999999999999
 75
     0
  0
LAYOUT
  5
22
102
{ACAD_REACTORS
330
1A
102
}
330
1A
100
AcDbPlotSettings
  1

  2
D:\AutoCAD 2002Cz\plotters\PublishToWeb DWF.pc3
  4

  6

 40
0.0
 41
0.0
 42
0.0
 43
0.0
 44
0.0
 45
0.0
 46
0.0
 47
0.0
 48
0.0
 49
0.0
140
0.0
141
0.0
142
1.0
143
1.0
 70
  1712
 72
     0
 73
     0
 74
     0
  7

 75
     0
147
1.0
148
0.0
149
0.0
100
AcDbLayout
  1
Model
 70
     1
 71
     0
 10
0.0
 20
0.0
 11
12.0
 21
9.0
 12
0.0
 22
0.0
 32
0.0
 14
0.0
 24
0.0
 34
0.0
 15
0.0
 25
0.0
 35
0.0
146
0.0
 13
0.0
 23
0.0
 33
0.0
 16
1.0
 26
0.0
 36
0.0
 17
0.0
 27
1.0
 37
0.0
 76
     0
330
1F
  0
LAYOUT
  5
1E
102
{ACAD_REACTORS
330
1A
102
}
330
1A
100
AcDbPlotSettings
  1

  2
D:\AutoCAD 2002Cz\plotters\PublishToWeb DWF.pc3
  4

  6

 40
0.0
 41
0.0
 42
0.0
 43
0.0
 44
0.0
 45
0.0
 46
0.0
 47
0.0
 48
0.0
 49
0.0
140
0.0
141
0.0
142
1.0
143
1.0
 70
   688
 72
     0
 73
     0
 74
     5
  7

 75
    16
147
1.0
148
0.0
149
0.0
100
AcDbLayout
  1
Rozvržení1
 70
     1
 71
     1
 10
0.0
 20
0.0
 11
420.0
 21
297.0
 12
0.0
 22
0.0
 32
0.0
 14
1.000000000000000E+20
 24
1.000000000000000E+20
 34
1.000000000000000E+20
 15
-1.000000000000000E+20
 25
-1.000000000000000E+20
 35
-1.000000000000000E+20
146
0.0
 13
0.0
 23
0.0
 33
0.0
 16
1.0
 26
0.0
 36
0.0
 17
0.0
 27
1.0
 37
0.0
 76
     0
330
1B
  0
LAYOUT
  5
26
102
{ACAD_REACTORS
330
1A
102
}
330
1A
100
AcDbPlotSettings
  1

  2
D:\AutoCAD 2002Cz\plotters\PublishToWeb DWF.pc3
  4

  6

 40
0.0
 41
0.0
 42
0.0
 43
0.0
 44
0.0
 45
0.0
 46
0.0
 47
0.0
 48
0.0
 49
0.0
140
0.0
141
0.0
142
1.0
143
1.0
 70
   688
 72
     0
 73
     0
 74
     5
  7

 75
    16
147
1.0
148
0.0
149
0.0
100
AcDbLayout
  1
Rozvržení2
 70
     1
 71
     2
 10
0.0
 20
0.0
 11
12.0
 21
9.0
 12
0.0
 22
0.0
 32
0.0
 14
0.0
 24
0.0
 34
0.0
 15
0.0
 25
0.0
 35
0.0
146
0.0
 13
0.0
 23
0.0
 33
0.0
 16
1.0
 26
0.0
 36
0.0
 17
0.0
 27
1.0
 37
0.0
 76
     0
330
23
  0
MLINESTYLE
  5
18
102
{ACAD_REACTORS
330
17
102
}
330
17
100
AcDbMlineStyle
  2
STANDARD
 70
     0
  3

 62
   256
 51
90.0
 52
90.0
 71
     2
 49
0.5
 62
   256
  6
BYLAYER
 49
-0.5
 62
   256
  6
BYLAYER
  0
ACDBPLACEHOLDER
  5
F
102
{ACAD_REACTORS
330
E
102
}
330
E
  0
DICTIONARYVAR
  5
30
102
{ACAD_REACTORS
330
2E
102
}
330
2E
100
DictionaryVariables
280
     0
  1
2
  0
DICTIONARYVAR
  5
2F
102
{ACAD_REACTORS
330
2E
102
}
330
2E
100
DictionaryVariables
280
     0
  1
1
  0
ENDSEC
  0
EOF
